Анна на тысячу дней / Тысяча дней Анны / Anne of the Thousand Days (Чарльз Джэрротт / Charles Jarrot) [1969, Великобритания, Драма, исторический, HDRip] 2 x MVO + AVO

Reply to topic
DL-List and Torrent activity
Size:  1.86 GB   |    Registered:  4 years   |    Completed:  0 times

Seeder not seen: Never

 
   
 
 
Author Message

star21 ®

Gender: Female

Longevity: 4 years 1 month

Posts: 551946

Location: Екатеринбург

Post 30-Nov-2015 05:45

[Quote]

Анна на тысячу дней / Тысяча дней Анны / Anne of the Thousand Days«He was King. She was barely 18. And in their thousand days they played out the most passionate and shocking love story in history!»- Страна: Великобритания
Жанр: Драма, исторический
Год выпуска: 1969
Продолжительность: 02:25:11-Перевод 1: Профессиональный (многоголосый закадровый) [НТВ]
Перевод 2: Авторский (одноголосый закадровый) [Лёша Прапорщик] - отдельно
Перевод 3: Профессиональный (многоголосый закадровый) ["Фильмэкспорт" по заказу СТС] - отдельно
Cубтитры: нет-Режиссер: Чарльз Джэрротт / Charles Jarrot-В ролях: Ричард Бёртон, Женевьев Бюжо, Ирен Папас, Энтони Куэйл, Джон Коликос, Майкл Хордерн, Кэтрин Блейк, Питер Джефри, Джозеф О’Конор, Уильям Скуайр-Описание: Английский король Генрих VIII всю жизнь мечтал о наследнике, но его жена, королева Екатерина Арагонская за долгие годы совместной жизни произвела на свет лишь дочь. Король просит у Папы римского разрешения на развод. Генрих хочет сделать новой королевой восемнадцатилетнюю Анну Болейн, уже беременную от него. Из Ватикана приходит отказ на просьбу короля. В 1533 году Генрих VIII идет на разрыв с католической церковью и становится основателем новой церкви — англиканской. Генрих устраняет все препятствия и добивается коронации Анны. Но его надеждам не суждено оправдаться, Анна приносит мужу еще одну дочь…-Sample | [imdb]http://www.imdb.com/title/tt0064030[/imdb] | КиноПоиск-Тип релиза: HDRip [исх. спасибо ]
Формат видео: AVI-Видео: 720x304 (2.37:1), 24.000 fps, XviD build 50, 1244 kbps avg, 0.24 bit/pixel
Аудио 1: 48 kHz, AC3 Dolby Digital, 2/0 (L,R) ch, 192.00 kbps avg [Russian_MVO]
Аудио 2: 48 kHz, AC3 Dolby Digital, 2/0 (L,R) ch, 192.00 kbps avg [Russian_AVO] - отдельно
Аудио 3: 48 kHz, AC3 Dolby Digital, 2/0 (L,R) ch, 192.00 kbps avg [Russian_MVO] - отдельно-Релиз группы:-

Сравнение скриншотов

http://screenshotcomparison.com/comparison/144517/picture:0

MediaInfo

General
Complete name : D:\Мои релизы\Anne of the Thousand Days_HDRip_RG_All_Films\Anne of the Thousand Days_HDRip_RG_All_Films.avi
Format : AVI
Format/Info : Audio Video Interleave
File size : 1.47 GiB
Duration : 2h 25mn
Overall bit rate : 1 446 Kbps
Writing application : VirtualDubMod 1.6.0.0 SURROUND (build 2560/release)
Writing library : VirtualDubMod build 2560/release
Video
ID : 0
Format : MPEG-4 Visual
Format profile : Advanced Simple@L5
Format settings, BVOP : Yes
Format settings, QPel : No
Format settings, GMC : No warppoints
Format settings, Matrix : Custom
Codec ID : XVID
Codec ID/Hint : XviD
Duration : 2h 25mn
Bit rate : 1 244 Kbps
Width : 720 pixels
Height : 304 pixels
Display aspect ratio : 2.35:1
Frame rate : 24.000 fps
Color space : YUV
Chroma subsampling : 4:2:0
Bit depth : 8 bits
Scan type : Progressive
Compression mode : Lossy
Bits/(Pixel*Frame) : 0.237
Stream size : 1.26 GiB (86%)
Writing library : XviD 1.2.1 (UTC 2008-12-04)
Audio
ID : 1
Format : AC-3
Format/Info : Audio Coding 3
Mode extension : CM (complete main)
Codec ID : 2000
Duration : 2h 25mn
Bit rate mode : Constant
Bit rate : 192 Kbps
Channel(s) : 2 channels
Channel positions : Front: L R
Sampling rate : 48.0 KHz
Bit depth : 16 bits
Compression mode : Lossy
Stream size : 199 MiB (13%)
Alignment : Split accross interleaves
Interleave, duration : 42 ms (1.00 video frame)
Interleave, preload duration : 500 ms
Audio #2 (отдельно)
Format : AC-3
Format/Info : Audio Coding 3
Mode extension : CM (complete main)
Duration : 2h 25mn
Bit rate mode : Constant
Bit rate : 192 Kbps
Channel(s) : 2 channels
Channel positions : Front: L R
Sampling rate : 48.0 KHz
Bit depth : 16 bits
Compression mode : Lossy
Stream size : 199 MiB (100%)
Audio #3 (отдельно)
Format : AC-3
Format/Info : Audio Coding 3
Mode extension : CM (complete main)
Duration : 2h 25mn
Bit rate mode : Constant
Bit rate : 192 Kbps
Channel(s) : 2 channels
Channel positions : Front: L R
Sampling rate : 48.0 KHz
Bit depth : 16 bits
Compression mode : Lossy
Stream size : 199 MiB (100%)

Скриншоты

To download the content you need:
1. Download and install torrent client [for Windows] or for mobile system
2. Click on [Download]
Attention.
If the test YOU are NOT a ROBOT - does not work, then You are using an outdated browser.
Install the current browser and click on [Download]
Security: torrent client is allowed by Kaspersky.

[en.asmlocator.ru].t3769.torrent 
Torrent: Registered [ 2015-11-30 05:45 ] · A5C89370EBE2BF56D22CE10BCFADFF28ECD50DE8

Download .torrent

Download

19 KB

Status: checked
Completed: 0 times
Size: 1.86 GB
terms.php
[Profile] [PM]
Display posts:    
Reply to topic

Current time is: 15-Dec 00:48

All times are UTC ± 0



You cannot post new topics in this forum
You cannot reply to topics in this forum
You cannot edit your posts in this forum
You cannot delete your posts in this forum
You cannot vote in polls in this forum
You cannot attach files in this forum
You can download files in this forum
Верим фактам, а не вранью Путина! Факт, что Правительство ведёт Россию к истреблению.
Так как численность населения падает, даже не смотря на приток эмигрантов!
Русская нация вымирает и вырождается, смешиваясь с эмигрантами!
Факт, что военных и граждан предприятий заставляют голосовать за партию Единая Россия и Путина
ПОД СТРАХОМ УВОЛЬНЕНИЯ!
Нам не нужно Правительство, блокирующее личную жизнь, интернет, нарушающее сохранность данных.
Все эти действия финансируются за счёт народа!