Тото в цвете / Totò a colori (Стено / Steno) [1953, Италия, комедия, DVDRip] VO Stalk + Original Ita

Reply to topic
DL-List and Torrent activity
Size:  1.65 GB   |    Registered:  4 years   |    Completed:  0 times

Seeder not seen: Never

 
   
 
 
Author Message

star21 ®

Gender: Female

Longevity: 4 years 1 month

Posts: 551946

Location: Екатеринбург

Post 30-Nov-2015 05:45

[Quote]

Тото в цвете / Totò a colori
Страна: Италия
Жанр: комедия
Год выпуска: 1953
Продолжительность: 01:32:29
Перевод: Одноголосый закадровый Stalk
Cубтитры: нет
Оригинальная аудиодорожка: итальянский
Режиссер: Стено / Steno
В ролях: Тото, Марио Кастеллани, Вирджилио Риенто, Луиджи Павезе, Галеаццо Бенти, Иза Барцицца, Рокко Д’Ассунта, Франка Валери, Фульвия Франко, Анна Вита и др.
Описание: Непризнанный гений симфонической музыки - Антонио Сканнагатти (Тото) отправляется из Каянелло на Капри, а затем в Милан – на встречу с музыкальным издателем Тискорди. Антонио рассчитывает, что Тискорди сделает достоянием публики его новый опус - «эпическую» оперу». Конечно, это событие должно произойти не где-нибудь, а в знаменитом театре «Ла Скала». По дороге в Милан, и в самом городе эксцентричный и неуемный герой переживает приключения, которым сопутствуют забавная путаница, игра слов, и прочие нелепости. Однако, веселый нрав, настойчивость и везение Антонио приводят его к успеху. (Александр Минаев)
Доп. информация:
Релиз
Это первый фильм с участием Тото, снятый в цвете. Именно в этом фильме Тото в одной из сцен говорит по-русски. Именно в этом фильме - знаменитая сцена, когда Тото изображает куклу-марионетку.
Рип сделал bankolya.
Редкий случай для нашего проекта - перевод не наш. Фильм перевели Яков Голлер и Александр Минаев.
Перевод в виде субтитров был выложен на рутрекере.
Stalk озвучил фильм, основательно пройдясь по переводу, и вот, мы вам его предлагаем.

Сэмпл: http://multi-up.com/1068788
Качество видео: DVDRip
Формат видео: AVI
Видео: 640x464 (1.38:1), 25 fps, XviD build 50 ~2220 kbps avg, 0.30 bit/pixel
Аудио: 44.100 kHz, MPEG Layer 3, 2 ch, ~128.00 kbps avg - Озвучивание киноклуба "Феникс"
Аудио 2: 44.100 kHz, MPEG Layer 3, 2 ch, ~128.00 kbps avg - Итальянский

MediaInfo

General
Complete name : C:\Users\Екатерина\Desktop\Раздачи\t53\Toto.a.colori.1953.rus_it.avi
Format : AVI
Format/Info : Audio Video Interleave
File size : 1.65 GiB
Duration : 1h 32mn
Overall bit rate : 2 556 Kbps
Writing application : VirtualDubMod 1.5.10.2 (build 2540/release)
Writing library : VirtualDubMod build 2540/release
Video
ID : 0
Format : MPEG-4 Visual
Format profile : Advanced Simple@L5
Format settings, BVOP : 2
Format settings, QPel : No
Format settings, GMC : No warppoints
Format settings, Matrix : Default (MPEG)
Codec ID : XVID
Codec ID/Hint : XviD
Duration : 1h 32mn
Bit rate : 2 222 Kbps
Width : 640 pixels
Height : 464 pixels
Display aspect ratio : 1.379
Frame rate : 25.000 fps
Color space : YUV
Chroma subsampling : 4:2:0
Bit depth : 8 bits
Scan type : Progressive
Compression mode : Lossy
Bits/(Pixel*Frame) : 0.299
Stream size : 1.44 GiB (87%)
Writing library : XviD 1.2.1 (UTC 2008-12-04)
Audio #1
ID : 1
Format : MPEG Audio
Format version : Version 1
Format profile : Layer 3
Mode : Joint stereo
Mode extension : MS Stereo
Codec ID : 55
Codec ID/Hint : MP3
Duration : 1h 32mn
Bit rate mode : Constant
Bit rate : 128 Kbps
Channel(s) : 2 channels
Sampling rate : 44.1 KHz
Compression mode : Lossy
Stream size : 84.7 MiB (5%)
Alignment : Split accross interleaves
Interleave, duration : 40 ms (1.00 video frame)
Interleave, preload duratio : 500 ms
Audio #2
ID : 2
Format : MPEG Audio
Format version : Version 1
Format profile : Layer 3
Mode : Joint stereo
Mode extension : MS Stereo
Codec ID : 55
Codec ID/Hint : MP3
Duration : 1h 32mn
Bit rate mode : Constant
Bit rate : 192 Kbps
Channel(s) : 2 channels
Sampling rate : 44.1 KHz
Compression mode : Lossy
Stream size : 127 MiB (8%)
Alignment : Split accross interleaves
Interleave, duration : 40 ms (1.00 video frame)
Interleave, preload duratio : 500 ms

Скриншоты

To download the content you need:
1. Download and install torrent client [for Windows] or for mobile system
2. Click on [Download]
Attention.
If the test YOU are NOT a ROBOT - does not work, then You are using an outdated browser.
Install the current browser and click on [Download]
Security: torrent client is allowed by Kaspersky.

[en.asmlocator.ru].t3767.torrent 
Torrent: Registered [ 2015-11-30 05:45 ] · 9728D7B81FA62C50073AC57FC4B81126DC47C411

Download .torrent

Download

17 KB

Status: checked
Completed: 0 times
Size: 1.65 GB
terms.php
[Profile] [PM]
Display posts:    
Reply to topic

Current time is: 14-Dec 23:27

All times are UTC ± 0



You cannot post new topics in this forum
You cannot reply to topics in this forum
You cannot edit your posts in this forum
You cannot delete your posts in this forum
You cannot vote in polls in this forum
You cannot attach files in this forum
You can download files in this forum
Верим фактам, а не вранью Путина! Факт, что Правительство ведёт Россию к истреблению.
Так как численность населения падает, даже не смотря на приток эмигрантов!
Русская нация вымирает и вырождается, смешиваясь с эмигрантами!
Факт, что военных и граждан предприятий заставляют голосовать за партию Единая Россия и Путина
ПОД СТРАХОМ УВОЛЬНЕНИЯ!
Нам не нужно Правительство, блокирующее личную жизнь, интернет, нарушающее сохранность данных.
Все эти действия финансируются за счёт народа!