Призрак улицы Морг / Phantom of the Rue Morgue (Рой Дель Рут / Roy Del Ruth) [1954, США, ужасы, криминал, детектив, DVDRip] Sub Rus + Original Eng

Reply to topic
DL-List and Torrent activity
Size:  708 MB   |    Registered:  4 years   |    Completed:  0 times

Seeder not seen: 1 year 6 months

 
   
 
 
Author Message

star21 ®

Gender: Female

Longevity: 4 years 1 month

Posts: 551946

Location: Екатеринбург

Post 30-Nov-2015 05:45

[Quote]

Призрак улицы Морг / Phantom of the Rue Morgue
Страна: США
Жанр: ужасы, криминал, детектив
Год выпуска: 1954
Продолжительность: 1:20:24
Перевод: Субтитры (Serveladkin)
Cубтитры: русские
Оригинальная аудиодорожка: английский
Режиссер: Рой Дель Рут / Roy Del Ruth
В ролях: Карл Молден, Клод Дофен, Патриция Медина, Стив Форрест, Эллин Энн МакЛери, Энтони Карузо, Веола Вонн, Долорес Дорн, Мерв Гриффин, Пол Ричардс, Рольф Седан, Мари Блейк
Описание: Париж. На улице Морг находят нескольких мертвых женщин. Одна особенность: все они носили колокольчики. Расследование приводит в лабораторию профессора Дюпена и доктора Марэ.
Доп. информация: [imdb]http://www.imdb.com/title/tt0047348[/imdb]
Качество видео: DVDRip
Формат видео: AVI
Видео: 640x480 (1.33:1), 25 fps, XviD build 47 ~1109 kbps avg, 0.14 bit/pixel
Аудио: 44.100 kHz, MPEG Layer 3, 2 ch, ~112.00 kbps avg
Формат субтитров: softsub (SRT)
БОЛЬШОЕ СПАСИБО Serveladkin за перевод

MediaInfo

GeneralComplete name                    : ...\Phantom of the Rue Morgue (1954).aviFormat                           : AVIFormat/Info                      : Audio Video InterleaveFile size                        : 708 MiBDuration                         : 1h 20mnOverall bit rate                 : 1 232 KbpsWriting application              : VirtualDubMod 1.5.4.1 (build 2178/release)Writing library                  : VirtualDubMod build 2178/release
VideoID : 0Format : MPEG-4 VisualFormat profile : Advanced Simple@L5Format settings, BVOP : 1Format settings, QPel : NoFormat settings, GMC : No warppointsFormat settings, Matrix : CustomCodec ID : XVIDCodec ID/Hint : XviDDuration : 1h 20mnBit rate : 1 110 KbpsWidth : 640 pixelsHeight : 480 pixelsDisplay aspect ratio : 4:3Frame rate : 25.000 fpsColor space : YUVChroma subsampling : 4:2:0Bit depth : 8 bitsScan type : ProgressiveCompression mode : LossyBits/(Pixel*Frame) : 0.145Stream size : 638 MiB (90%)Writing library : XviD 1.2.0.dev47 (UTC 2006-11-01)
AudioID : 1Format : MPEG AudioFormat version : Version 1Format profile : Layer 3Mode : Joint stereoMode extension : MS StereoCodec ID : 55Codec ID/Hint : MP3Duration : 1h 20mnBit rate mode : ConstantBit rate : 112 KbpsChannel(s) : 2 channelsSampling rate : 44.1 KHzCompression mode : LossyStream size : 64.4 MiB (9%)Alignment : Split accross interleavesInterleave, duration : 40 ms (1.00 video frame)Interleave, preload duration : 500 msLanguage : English

Скриншоты

Фрагмент субтитров

7000:11:03,760 --> 00:11:07,200Говорю вам, я этого не делал,и никто не может доказать обратного!
7100:11:07,542 --> 00:11:10,754Она пытается устроить мне проблемы,потому что я предпочел ей Ивонн!
7200:11:10,822 --> 00:11:13,520Свинья! Я люблю тебя!
7300:11:13,680 --> 00:11:15,200И всегда любила!
7400:11:15,360 --> 00:11:17,320Тогда я ничего не понимаю.
7500:11:17,440 --> 00:11:20,800На мой взгляд, вы убийца,но все же вы это отрицаете.
7600:11:21,000 --> 00:11:23,760Значит, очевидно, что я неправ, да?
7700:11:24,840 --> 00:11:29,840Великий Ломброзо изучил лицасотен преступников.
7800:11:30,360 --> 00:11:33,120Определенные черты, например...
7900:11:33,280 --> 00:11:35,430отсутствие мочки уха,...
8000:11:35,600 --> 00:11:37,990Как я заметил, у вас ее нет.
8100:11:39,320 --> 00:11:40,548Уж меня ему не обмануть!
8200:11:40,640 --> 00:11:43,030Я всегда знал, что он преступник!
8300:11:43,200 --> 00:11:45,400Вы очень наблюдательны, а?
8400:11:45,800 --> 00:11:48,400Жандарм, у вас, разумеется, есть теория.
8500:11:48,480 --> 00:11:50,040У всех жандармов есть теории.
8600:11:50,200 --> 00:11:53,990Да, сэр. Он спустился с крышипо веревке и сбежал тем же путем.
8700:11:54,840 --> 00:11:58,868Но с такой скоростью? Для этого нужнабольшая ловкость, как у атлета.
8800:11:58,880 --> 00:12:01,977Так это он и есть!Он раньше работал на карнавалах.
8900:12:02,080 --> 00:12:04,240Чудесно, акробат!Канатоходец,

To download the content you need:
1. Download and install torrent client [for Windows] or for mobile system
2. Click on [Download]
Attention.
If the test YOU are NOT a ROBOT - does not work, then You are using an outdated browser.
Install the current browser and click on [Download]
Security: torrent client is allowed by Kaspersky.

[en.asmlocator.ru].t3766.torrent 
Torrent: Registered [ 2015-11-30 05:45 ] · FD0D71D89DF585E606B7975B66B0E132C6F64B8D

Download .torrent

Download

15 KB

Status: checked
Completed: 0 times
Size: 708 MB
terms.php
[Profile] [PM]
Display posts:    
Reply to topic

Current time is: 10-Dec 08:02

All times are UTC ± 0



You cannot post new topics in this forum
You cannot reply to topics in this forum
You cannot edit your posts in this forum
You cannot delete your posts in this forum
You cannot vote in polls in this forum
You cannot attach files in this forum
You can download files in this forum
Верим фактам, а не вранью Путина! Факт, что Правительство ведёт Россию к истреблению.
Так как численность населения падает, даже не смотря на приток эмигрантов!
Русская нация вымирает и вырождается, смешиваясь с эмигрантами!
Факт, что военных и граждан предприятий заставляют голосовать за партию Единая Россия и Путина
ПОД СТРАХОМ УВОЛЬНЕНИЯ!
Нам не нужно Правительство, блокирующее личную жизнь, интернет, нарушающее сохранность данных.
Все эти действия финансируются за счёт народа!