Необузданные / The Lusty Men (Николас Рэй / Nicholas Ray) [1952, США, вестерн, драма, WEB-DLRip] Sub Rus, Eng + Original Eng

Reply to topic
DL-List and Torrent activity
Size:  1.46 GB   |    Registered:  4 years 7 months   |    Completed:  0 times

Seeder not seen: Never

 
   
 
 
Author Message

star21 ®

Gender: Female

Longevity: 4 years 8 months

Posts: 551945

Location: Екатеринбург

Post 30-Nov-2015 05:45

[Quote]

Необузданные / The Lusty Men
Страна: США
Жанр: вестерн, драма
Год выпуска: 1952
Продолжительность: 01:52:59
Перевод: Субтитры
Cубтитры: русские, английские
Оригинальная аудиодорожка: английский

Режиссер: Николас Рэй / Nicholas Ray
В ролях: Сьюзен Хэйуорд, Роберт Митчем, Артур Кеннеди, Артур Ханникат, Фрэнк Фэйлен, Уолтер Кой, Кэрол Наджент, Мария Харт, Лорна Тэйер, Берт Мустин
Описание: Бывшая звезда родео Джефф МакКлауд получает тяжелую травму на выступлении и вынужден завершить карьеру. Без определенной цели, просто по зову сердца, он возвращается туда, где прошло его детство, в родной дом который он хотел однажды выкупить. Но немалые деньги, выигранные им за 18 лет в родео, растрачены. Копить, смотреть в будущее — не в его характере. Живущий по соседству ковбой Уэс Мерритт, женатый уже третий год, наслышан о его подвигах и устраивает его на ранчо, где работает сам. Уэс и его жена Луиза планируют купить собственное ранчо, но для этого им нужно копить деньги еще много лет. Уэса манят быстрые выигрыши в родео, и он просит Джеффа ввести его в этот спорт…
Качество видео:
Формат видео: AVI
Видео: 656x480 (1.37:1), 23.976 fps, XviD build 73 ~1642 kbps avg, 0.22 bit/pixel
Аудио: 48 kHz, AC3 Dolby Digital, 2/0 (L,R) ch, ~192 kbps

Фрагмент субтитров

570
00:48:43,854 --> 00:48:45,709
Это ваш трейлер?
571
00:48:45,769 --> 00:48:48,714
По крайней мере,
так сказал продавец.
572
00:48:48,774 --> 00:48:50,314
Нравится?
573
00:48:51,854 --> 00:48:55,190
- Похоже на гостиницу.
- Это и есть гостиница.
574
00:48:58,711 --> 00:49:00,510
И где вы нашли Джэффа?
575
00:49:00,570 --> 00:49:03,471
В Техасе.
Только это он нашел нас.
576
00:49:03,531 --> 00:49:06,335
- Вы давно замужем?
- Два года.
577
00:49:06,395 --> 00:49:08,279
Рекомендуете?
578
00:49:08,339 --> 00:49:10,345
Это то, чего
я всегда хотела.
579
00:49:10,405 --> 00:49:12,702
А вам не скучно
быть домохозяйкой?
580
00:49:12,762 --> 00:49:15,416
Нет - мне это по душе.
581
00:49:15,476 --> 00:49:19,192
А мне - нет. Конечно,
когда надо и я готовлю,
582
00:49:19,252 --> 00:49:22,727
но все же лучше, если этим
занимается кто-то другой.
583
00:49:23,112 --> 00:49:26,768
Здесь даже есть душ,
примите его, пока готовится кофе.
584
00:49:26,828 --> 00:49:31,195
- Спасибо! Душ был бы кстати.
- И там где-то висит халат...
585
00:49:33,606 --> 00:49:35,808
Что вы думаете про Джэффа?
586
00:49:35,868 --> 00:49:38,419
Еще один ковбой перекати-поле...
587
00:49:38,479 --> 00:49:40,469
Есть тут кто?
588
00:49:42,047 --> 00:49:44,203
Ой, я не знала,
что ты не одна...
589
00:49:44,263 --> 00:49:46,626
Луиза Мерритт, -
Джинни Логан.
590
00:49:46,686 --> 00:49:48,616
- Привет.
- Привет!
591
00:49:48,676 --> 00:49:51,020
Это ведь вы приехали
с Джэффом МакЛаудом?
592
00:49:51,080 --> 00:49:54,663
- Он несравненен, правда Розмари?
- Аха.
593
00:49:54,723 --> 00:49:59,479
Рэд постоянно восхищается им.
Рэд - это мой муж.

MediaInfo

Общее
Полное имя : H:\The.Lusty.Men.1952.web-dlrip_[1.46]_[teko]\The.Lusty.Men.1952.web-dlrip_[1.46].avi
Формат : AVI
Формат/Информация : Audio Video Interleave
Размер файла : 1,46 Гбайт
Продолжительность : 1 ч. 52 м.
Общий поток : 1844 Кбит/сек
Программа кодирования : VirtualDubMod 1.5.10.3 | www.virtualdub-fr.org || (build 2550/release)
Библиотека кодирования : VirtualDubMod build 2550/release
Видео
Идентификатор : 0
Формат : MPEG-4 Visual
Профиль формата : Advanced Simple@L5
Параметр BVOP формата : 1
Параметр QPel формата : Нет
Параметр GMC формата : Без точки перехода
Параметр матрицы формата : Выборочная
Идентификатор кодека : XVID
Идентификатор кодека/Подсказка : XviD
Продолжительность : 1 ч. 52 м.
Битрейт : 1643 Кбит/сек
Ширина : 656 пикселей
Высота : 480 пикселей
Соотношение сторон : 4:3
Частота кадров : 23,976 кадра/сек
Цветовое пространство : YUV
Субдискретизация насыщенности : 4:2:0
Битовая глубина : 8 бит
Тип развёртки : Прогрессивная
Метод сжатия : С потерями
Бит/(Пиксели*Кадры) : 0.218
Размер потока : 1,30 Гбайт (89%)
Библиотека кодирования : XviD 73
Аудио
Идентификатор : 1
Формат : AC-3
Формат/Информация : Audio Coding 3
Расширение режима : CM (complete main)
Параметр Endianness формата : Big
Идентификатор кодека : 2000
Продолжительность : 1 ч. 52 м.
Вид битрейта : Постоянный
Битрейт : 192 Кбит/сек
Каналы : 2 канала
Расположение каналов : Front: L R
Частота : 48,0 КГц
Битовая глубина : 16 бит
Метод сжатия : С потерями
Размер потока : 155 Мбайт (10%)
Выравнивание : Разделение по промежуткам
Продолжительность промежутка : 42 мс. (1,00 видеокадр)
Время предзагрузки промежутка : 500 мс.
Релиз группы:
-
-

To download the content you need:
1. Download and install torrent client [for Windows] or for mobile system
2. Click on [Download]
Attention.
If the test YOU are NOT a ROBOT - does not work, then You are using an outdated browser.
Install the current browser and click on [Download]

Do not work with Yandex browser. Uploading files to them is erroneous.
Security: torrent client is allowed by Kaspersky.

[en.asmlocator.ru].t3763.torrent 
Torrent: Registered [ 2015-11-30 05:45 ] · 7181D509616C2501327D1FB5D57B5086701E75B5

Download .torrent

Download

15 KB

Status: checked
Completed: 0 times
Size: 1.46 GB
terms.php
[Profile] [PM]
Display posts:    
Reply to topic

Current time is: 13-Jul 01:02

All times are UTC ± 0



You cannot post new topics in this forum
You cannot reply to topics in this forum
You cannot edit your posts in this forum
You cannot delete your posts in this forum
You cannot vote in polls in this forum
You cannot attach files in this forum
You can download files in this forum
Верим фактам, а не вранью Путина! Факт, что Правительство ведёт Россию к истреблению.
Так как численность населения падает, даже не смотря на приток эмигрантов!
Русская нация вымирает и вырождается, смешиваясь с эмигрантами!
Факт, что военных и граждан предприятий заставляют голосовать за партию Единая Россия и Путина
ПОД СТРАХОМ УВОЛЬНЕНИЯ!
Нам не нужно Правительство, блокирующее личную жизнь, интернет, нарушающее сохранность данных.
Все эти действия финансируются за счёт народа!