Ночной поезд до Парижа / Night Train to Paris (Роберт Дуглас / Robert Douglas) [1964, Великобритания, Шпионский детектив, DVDRip] Sub Rus + Original Eng

Reply to topic
DL-List and Torrent activity
Size:  618 MB   |    Registered:  4 years   |    Completed:  0 times

Seeder not seen: Never

 
   
 
 
Author Message

star21 ®

Gender: Female

Longevity: 4 years 1 month

Posts: 551946

Location: Екатеринбург

Post 30-Nov-2015 05:45

[Quote]

Ночной поезд до Парижа / Night Train to Paris
Страна: Великобритания
Жанр: Шпионский детектив
Год выпуска: 1964
Продолжительность: 1:04:35
Перевод: Субтитры (cooman1)
Cубтитры: русские
Оригинальная аудиодорожка: английский
Режиссер: Роберт Дуглас / Robert Douglas
В ролях: Лесли Нильсен, Ализа Гар, Доринда Стивенс, Эрик Польман, Эдина Ронай, Андре Маранн, Сирил Рэймонд, Стэнли Морган, Хью Латимер, Дженни Уайт
Описание: К бывшему разведчику ОСС (сейчас ЦРУ) Алану Холидэю, работающему ныне в Лондоне, в канун Нового Года обратилась красотка, представившись коллегой его друга и шефа со времён войны, Жюля Лемуана. От его имени она просит Алана переправить их в Париж с тайной миссией. Встретившись с Аланом, Жюль передаёт ему на время плёнку с секретными материалами, а у себя оставляет поддельную. Но Лемуана убивают, а поддельную плёнку похищают. Алан должен выполнить просьбу Жюля, и ему ничего не остаётся, как отправиться в Париж на поезде в Новогоднюю ночь.
Сэмпл: http://multi-up.com/1068911
Качество видео: DVDRip
Формат видео: AVI
Видео: Xvid, 720x432, 1,66:1, 1200 Kbps, NTSC, 23,976fps
Аудио: Mp3, 128 Kbps, 48 KHz, 2 ch mono
Формат субтитров: hardsub (неотключаемые)

MediaInfo

Общее
Полное имя : D:\Torrents\Night Train to Paris [1964].avi
Формат : AVI
Формат/Информация : Audio Video Interleave
Размер файла : 618 Мбайт
Продолжительность : 1 ч. 4 м.
Общий поток : 1337 Кбит/сек
Программа кодирования : VirtualDubMod 1.5.10.3 | www.virtualdub-fr.org || (build 2550/release)
Библиотека кодирования : VirtualDubMod build 2550/release
Видео
Идентификатор : 0
Формат : MPEG-4 Visual
Профиль формата : Advanced Simple@L5
Параметр BVOP формата : 1
Параметр QPel формата : Нет
Параметр GMC формата : Без точки перехода
Параметр матрицы формата : Default (MPEG)
Идентификатор кодека : XVID
Идентификатор кодека/Подсказка : XviD
Продолжительность : 1 ч. 4 м.
Битрейт : 1200 Кбит/сек
Ширина : 720 пикселей
Высота : 432 пикселя
Соотношение сторон : 1,667
Частота кадров : 23,976 кадра/сек
Цветовое пространство : YUV
Субдискретизация насыщенности : 4:2:0
Битовая глубина : 8 бит
Тип развёртки : Прогрессивная
Метод сжатия : С потерями
Бит/(Пиксели*Кадры) : 0.161
Размер потока : 554 Мбайт (90%)
Библиотека кодирования : XviD 1.2.1 (UTC 2008-12-04)
Аудио
Идентификатор : 1
Формат : MPEG Audio
Версия формата : Version 1
Профиль формата : Layer 3
Идентификатор кодека : 55
Идентификатор кодека/Подсказка : MP3
Продолжительность : 1 ч. 4 м.
Вид битрейта : Постоянный
Битрейт : 128 Кбит/сек
Каналы : 2 канала
Частота : 48,0 КГц
Метод сжатия : С потерями
Размер потока : 59,1 Мбайт (10%)
Выравнивание : Соединение по промежуткам
Продолжительность промежутка : 42 мс. (1,00 видеокадр)
Время предзагрузки промежутка : 504 мс.
Библиотека кодирования : LAME3.99r
Настройки программы : -m s -V 4 -q 2 -lowpass 17 -b 128

Скриншот c названием фильма

Скриншоты

To download the content you need:
1. Download and install torrent client [for Windows] or for mobile system
2. Click on [Download]
Attention.
If the test YOU are NOT a ROBOT - does not work, then You are using an outdated browser.
Install the current browser and click on [Download]
Security: torrent client is allowed by Kaspersky.

[en.asmlocator.ru].t3762.torrent 
Torrent: Registered [ 2015-11-30 05:45 ] · EB9F49AD28E211F432AE19CDB0504FB3A299C21B

Download .torrent

Download

13 KB

Status: checked
Completed: 0 times
Size: 618 MB
terms.php
[Profile] [PM]
Display posts:    
Reply to topic

Current time is: 08-Dec 10:36

All times are UTC ± 0



You cannot post new topics in this forum
You cannot reply to topics in this forum
You cannot edit your posts in this forum
You cannot delete your posts in this forum
You cannot vote in polls in this forum
You cannot attach files in this forum
You can download files in this forum
Верим фактам, а не вранью Путина! Факт, что Правительство ведёт Россию к истреблению.
Так как численность населения падает, даже не смотря на приток эмигрантов!
Русская нация вымирает и вырождается, смешиваясь с эмигрантами!
Факт, что военных и граждан предприятий заставляют голосовать за партию Единая Россия и Путина
ПОД СТРАХОМ УВОЛЬНЕНИЯ!
Нам не нужно Правительство, блокирующее личную жизнь, интернет, нарушающее сохранность данных.
Все эти действия финансируются за счёт народа!