Чёрные шпоры / Black Spurs (Р.Г. Спрингстин / R.G. Springsteen) [1965, США, вестерн, DVDRip] VO + Original Eng

Reply to topic
DL-List and Torrent activity
Size:  1.35 GB   |    Registered:  4 years   |    Completed:  0 times

Seeder not seen: 1 year 11 months

 
   
 
 
Author Message

star21 ®

Gender: Female

Longevity: 4 years 1 month

Posts: 551946

Location: Екатеринбург

Post 30-Nov-2015 05:45

[Quote]

--Чёрные шпоры / Black Spurs-- Страна: США
Жанр: вестерн
Год выпуска: 1965
Продолжительность: 01:17:27-Перевод: Одноголосый закадровый
Cубтитры: нет
Оригинальная аудиодорожка: английский-Режиссер: Р.Г. Спрингстин / R.G. Springsteen-В ролях: Рори Кэлхун, Линда Дарнелл, Терри Мур, Скотт Брейди, Лон Чейни младший, Ричард Арлен, Брюс Кэбот, Патриция Оуэнс, Джеймс Бест, Джером Куртлэнд.-Описание: Разочарованный в жизни охотник за головами помогает нечистому на руку дельцу разрушить репутацию маленького городка, чтобы сорвать строительство в нём железной дороги. Но когда преступники начинают чувствовать себя в городе слишком вольготно, он встаёт на защиту мирных жителей и примиряется с выбором своей бывшей невесты..- -Качество видео: DVDRip
Формат видео: AVI
Видео: XviD, 640x480 (4:3), 23.976 fps, ~2100 kbps
Аудио rus: AC-3, 48 KHz, 2 ch, 192 kbps
Аудио eng: AC-3, 48 KHz, 2 ch, 192 kbps

Релиз

Релиз подготовил: Skyns61
Перевод: Свен Железнов
Закадровый текст: Евгений Малиновский
Редакторы фильма: Крюков Алексей и Евгений Малиновский
Фильм переведен и озвучен специально для 7букв Вестерн группы Джесси Джеймса
Большое спасибо за исходник - tjapa2000

MediaInfo

Общее
Полное имя : F:\Films\Black Spurs.1965\Black.Spurs.1965.avi
Формат : AVI
Формат/Информация : Audio Video Interleave
Размер файла : 1,35 Гбайт
Продолжительность : 1 ч. 17 м.
Общий поток : 2498 Кбит/сек
Программа кодирования : VirtualDubMod 1.5.10.3 (build 2550/release)
Библиотека кодирования : VirtualDubMod build 2550/release
Видео
Идентификатор : 0
Формат : MPEG-4 Visual
Профиль формата : Advanced Simple@L5
Параметр BVOP формата : 2
Параметр QPel формата : Нет
Параметр GMC формата : Без точки перехода
Параметр матрицы формата : Default (MPEG)
Идентификатор кодека : XVID
Идентификатор кодека/Подсказка : XviD
Продолжительность : 1 ч. 17 м.
Битрейт : 2100 Кбит/сек
Ширина : 640 пикселей
Высота : 480 пикселей
Соотношение сторон : 4:3
Частота кадров : 23,976 кадра/сек
Цветовое пространство : YUV
Субдискретизация насыщенности : 4:2:0
Битовая глубина : 8 бит
Тип развёртки : Прогрессивная
Метод сжатия : С потерями
Бит/(Пиксели*Кадры) : 0.285
Размер потока : 1,14 Гбайт (84%)
Библиотека кодирования : XviD 73
Аудио #1
Идентификатор : 1
Формат : AC-3
Формат/Информация : Audio Coding 3
Расширение режима : CM (complete main)
Параметр Endianness формата : Big
Идентификатор кодека : 2000
Продолжительность : 1 ч. 17 м.
Вид битрейта : Постоянный
Битрейт : 192 Кбит/сек
Каналы : 2 канала
Расположение каналов : Front: L R
Частота : 48,0 КГц
Метод сжатия : С потерями
Размер потока : 106 Мбайт (8%)
Выравнивание : Разделение по промежуткам
Продолжительность промежутка : 42 мс. (1,00 видеокадр)
Время предзагрузки промежутка : 500 мс.
Аудио #2
Идентификатор : 2
Формат : AC-3
Формат/Информация : Audio Coding 3
Расширение режима : CM (complete main)
Параметр Endianness формата : Big
Идентификатор кодека : 2000
Продолжительность : 1 ч. 17 м.
Вид битрейта : Постоянный
Битрейт : 192 Кбит/сек
Каналы : 2 канала
Расположение каналов : Front: L R
Частота : 48,0 КГц
Метод сжатия : С потерями
Размер потока : 106 Мбайт (8%)
Выравнивание : Разделение по промежуткам
Продолжительность промежутка : 42 мс. (1,00 видеокадр)
Время предзагрузки промежутка : 500 мс.

Скриншот c названием фильма

Скриншоты

To download the content you need:
1. Download and install torrent client [for Windows] or for mobile system
2. Click on [Download]
Attention.
If the test YOU are NOT a ROBOT - does not work, then You are using an outdated browser.
Install the current browser and click on [Download]
Security: torrent client is allowed by Kaspersky.

[en.asmlocator.ru].t3761.torrent 
Torrent: Registered [ 2015-11-30 05:45 ] · 3B1BC37BCB84AEEAECCB1374B5785B2E16CFAFCD

Download .torrent

Download

14 KB

Status: checked
Completed: 0 times
Size: 1.35 GB
terms.php
[Profile] [PM]
Display posts:    
Reply to topic

Current time is: 08-Dec 11:07

All times are UTC ± 0



You cannot post new topics in this forum
You cannot reply to topics in this forum
You cannot edit your posts in this forum
You cannot delete your posts in this forum
You cannot vote in polls in this forum
You cannot attach files in this forum
You can download files in this forum
Верим фактам, а не вранью Путина! Факт, что Правительство ведёт Россию к истреблению.
Так как численность населения падает, даже не смотря на приток эмигрантов!
Русская нация вымирает и вырождается, смешиваясь с эмигрантами!
Факт, что военных и граждан предприятий заставляют голосовать за партию Единая Россия и Путина
ПОД СТРАХОМ УВОЛЬНЕНИЯ!
Нам не нужно Правительство, блокирующее личную жизнь, интернет, нарушающее сохранность данных.
Все эти действия финансируются за счёт народа!