Запах миндаля / С запахом миндаля / С дъх на бадеми / S dakh na bademi (Любомир Шарланджиев / Lyubomir Sharlandzhiev) [1967, Болгария, Мелодрама, драма, DVB] Sub Rus

Reply to topic
DL-List and Torrent activity
Size:  1007 MB   |    Registered:  4 years 7 months   |    Completed:  0 times

Seeder not seen: 2 years 2 months

 
   
 
 
Author Message

star21 ®

Gender: Female

Longevity: 4 years 8 months

Posts: 551945

Location: Екатеринбург

Post 30-Nov-2015 05:45

[Quote]

Запах миндаля / С запахом миндаля / С дъх на бадеми / S dakh na bademi
Страна: Болгария
Жанр: Мелодрама, драма
Год выпуска: 1967
Продолжительность: 01:08:00
Перевод: Субтитры
Cубтитры: русские
Оригинальная аудиодорожка: Болгарский
Режиссер: Любомир Шарланджиев / Lyubomir Sharlandzhiev
В ролях: Невена Коканова, Георги Георгиев-Гец, Искра Хаджиева, Антония Чолчева, Стефан Данаилов, Доротея Тончева, Васил Михайлов, Георги Черкелов, Георги Попов, Тихомир Златев, Йосиф Сырчаджиев, Росица Данаилова, Тодор Андрейков, Евстати Стратев, Милка Туйкова, Стефан Мавродиев, Меглена Караламбова, Румен Сурджийски
Описание: По одноименному рассказу Павла Вежинова.
Красавица Герда работает парикмахером. Шесть лет она встречается с пожилым Михаилом Никодимовым, который разрывается между ней и семьёй. Коллега Герды Жени советует ей расстаться с Никодимовым и уверяет, что он никогда не оставит жену. Параллельно развивается другая сюжетная линия - в доме профессора Северинова собирается торжество. Супруга его тщательно готовится к вечеру. Причиной её волнения является ассистент профессора Белокожев. Сестра хозяйки дома Мина тоже не равнодушна к молодому учёному.

«Спутник кинозрителя», сентябрь 1968 года


Как известно, запахом горького миндаля обладает цианистый калий...
«Запах миндаля» - серьезный фильм. Неустроенные судьбы, житейские драмы, слезы, отчаяние, даже самоубийство — вот его содержание. И все на любовной почве.
Фильм задуман как опровержение высказываний одного из его героев, аспиранта Белокожева. Этот бородатый молодой человек произносит в не очень-то подходящих условиях — в парке, наедине с девушкой — пространный монолог о превосходстве высшего, механического, электронного разума. Основное преимущество такого мозга, по словам аспиранта, заключается в отсутствии эмоций, которые только мешают людям жить и работать. Конечно, сама эта наукообразная трескотня не что иное, как желание покрасоваться перед собеседницей, тот же распущенный павлиний хвост, который он сам едко осмеивает. Но даже высказанная в ироническом контексте подобная точка зрения не устраивает авторов картины. Люди — не роботы, без эмоций, без переживаний жизнь на земле прекратилась бы, хотя люди могут заблуждаться, ошибаться, страдать, и поэтому относиться друг к другу следует бережно, иначе можно натворить непоправимых бед, даже руководствуясь лучшими побуждениями.
Кинокритик Всеволод Ревич
kino-teatr.ru
kinopoisk.ru
IMDb
Доп. информация: рип - VPN777; субтитры - VPN777 - за что ему большая благодарность
За помощь в переводе субтиров большая благодарность
Сэмпл: http://multi-up.com/1068915
Качество видео: DVB
Формат видео: MKV
Видео: 720 х 576 (16:9); 25.000 fps; AVC; 2 048 Kbps; 0.175 bit/pixel
Аудио: Болгарский; MP2; 48.0 KHz; 192 Kbps; 2 ch
Формат субтитров: softsub (SRT)

MediaInfo

General
Unique ID : 191785156625995724709292082591827481656 (0x90487A4439157F77902B885E3A67D438)
Complete name : D:\S dyh na bademi (1967).mkv
Format : Matroska
Format version : Version 4 / Version 2
File size : 1 007 MiB
Duration : 1h 8mn
Overall bit rate : 2 048 Kbps
Encoded date : UTC 2015-09-28 15:09:48
Writing application : mkvmerge v7.8.0 ('River Man') 32bit built on Mar 27 2015 16:18:02
Writing library : libebml v1.3.1 + libmatroska v1.4.2
_STATISTICS_WRITING_APP : mkvmerge v7.8.0 ('River Man') 32bit built on Mar 27 2015 16:18:02
_STATISTICS_WRITING_DATE_UTC : 2015-09-28 15:09:48
_STATISTICS_TAGS : BPS DURATION NUMBER_OF_FRAMES NUMBER_OF_BYTES
DURATION : 01:07:21.100000000
NUMBER_OF_FRAMES : 701
NUMBER_OF_BYTES : 40132
Video
ID : 1
Format : AVC
Format/Info : Advanced Video Codec
Format profile : High@L3
Format settings, CABAC : Yes
Format settings, ReFrames : 4 frames
Codec ID : V_MPEG4/ISO/AVC
Duration : 1h 8mn
Bit rate : 1 815 Kbps
Width : 720 pixels
Height : 576 pixels
Display aspect ratio : 16:9
Original display aspect ratio : 4:3
Frame rate mode : Constant
Frame rate : 25.000 fps
Standard : PAL
Color space : YUV
Chroma subsampling : 4:2:0
Bit depth : 8 bits
Scan type : MBAFF
Scan order : Top Field First
Bits/(Pixel*Frame) : 0.175
Stream size : 893 MiB (89%)
Default : Yes
Forced : No
Color range : Limited
Color primaries : BT.601 PAL
Transfer characteristics : BT.470 System B, BT.470 System G
Matrix coefficients : BT.601
Audio
ID : 2
Format : MPEG Audio
Format version : Version 1
Format profile : Layer 2
Codec ID : A_MPEG/L2
Codec ID/Hint : MP2
Duration : 1h 8mn
Bit rate mode : Constant
Bit rate : 192 Kbps
Channel(s) : 2 channels
Sampling rate : 48.0 KHz
Compression mode : Lossy
Stream size : 94.4 MiB (9%)
Language : Bulgarian
Default : Yes
Forced : No
Text
ID : 3
Format : UTF-8
Codec ID : S_TEXT/UTF8
Codec ID/Info : UTF-8 Plain Text
Title : русский (VPN777)
Language : Russian
Default : Yes
Forced : Yes

Скриншот c названием фильма

To download the content you need:
1. Download and install torrent client [for Windows] or for mobile system
2. Click on [Download]
Attention.
If the test YOU are NOT a ROBOT - does not work, then You are using an outdated browser.
Install the current browser and click on [Download]

Do not work with Yandex browser. Uploading files to them is erroneous.
Security: torrent client is allowed by Kaspersky.

[en.asmlocator.ru].t3760.torrent 
Torrent: Registered [ 2015-11-30 05:45 ] · 7A631640C6673DC178E38640F843ACD3B9CA00BE

Download .torrent

Download

20 KB

Status: checked
Completed: 0 times
Size: 1007 MB
terms.php
[Profile] [PM]
Display posts:    
Reply to topic

Current time is: 13-Jul 02:58

All times are UTC ± 0



You cannot post new topics in this forum
You cannot reply to topics in this forum
You cannot edit your posts in this forum
You cannot delete your posts in this forum
You cannot vote in polls in this forum
You cannot attach files in this forum
You can download files in this forum
Верим фактам, а не вранью Путина! Факт, что Правительство ведёт Россию к истреблению.
Так как численность населения падает, даже не смотря на приток эмигрантов!
Русская нация вымирает и вырождается, смешиваясь с эмигрантами!
Факт, что военных и граждан предприятий заставляют голосовать за партию Единая Россия и Путина
ПОД СТРАХОМ УВОЛЬНЕНИЯ!
Нам не нужно Правительство, блокирующее личную жизнь, интернет, нарушающее сохранность данных.
Все эти действия финансируются за счёт народа!