Трудная любовь / Неприступная любовь / L\'amore difficile (Нино Манфреди / Nino Manfredi, Сержио Соллима / Sergio Sollima, Альберто Бонуччи / Alberto Bonucci, Лучиано Лучиньяни / Luciano Lucignani) [1962, Италия, Германия(ФРГ), комедия, DVDRip] VO

Reply to topic
DL-List and Torrent activity
Size:  916 MB   |    Registered:  4 years   |    Completed:  0 times

Seeder not seen: 1 month 25 days

 
   
 
 
Author Message

star21 ®

Gender: Female

Longevity: 4 years 1 month

Posts: 551946

Location: Екатеринбург

Post 30-Nov-2015 05:45

[Quote]

Трудная любовь / Неприступная любовь / L'amore difficile
Страна: Италия, Германия (ФРГ)
Жанр: комедия
Год выпуска: 1962
Продолжительность: 01:56:14
Перевод: Одноголосый закадровый Urasiko
Cубтитры: нет
Оригинальная аудиодорожка: нет
Режиссер: Нино Манфреди / Nino Manfredi, Сержио Соллима / Sergio Sollima, Альберто Бонуччи / Alberto Bonucci, Лучиано Лучиньяни / Luciano Lucignani
В ролях: Энрико Мария Салерно, Клаудия Мори, Катрин Спаак, Витторио Гассман, Надя Тиллер, Нино Манфреди, Лилли Пальмер, Гастоне Москин, Лилла Бриньоне, Адриано Римольди, Фульвия Франко, Бернхард Викки
Описание: Каждый из эпизодов этого фильма снят по произведениям современных итальянских писателей (Эрколе Патти, Альберто Моравиа, Итало Кальвино, Марио Солдати). Тема всегда одна - любовь.
Доп. информация: Релиз
Перевод с итальянского и озвучивание Urasiko
Альтернативная раздачв с другим переводом
Рип взят оттуда
Сэмпл: http://multi-up.com/1068950
Качество видео: DVDRip
Формат видео: AVI
Видео: DivX Codec 5.02 build 481, 640x368 (1.74:1), 25 fps, ~899 kbps avg, 0.15 bit/pixel
Аудио: Русская: AC-3, 48 KHz, 192 Kbps, 2 channels

MediaInfo

General
Complete name : E:\CD\L'amore difficile(1962) Ru.avi
Format : AVI
Format/Info : Audio Video Interleave
File size : 916 MiB
Duration : 1h 56mn
Overall bit rate : 1 101 Kbps
Writing application : VirtualDubMod 1.5.10.2 (build 2540/release)
Writing library : VirtualDubMod build 2540/release
Video
ID : 0
Format : MPEG-4 Visual
Format settings, BVOP : 1
Format settings, QPel : No
Format settings, GMC : No warppoints
Format settings, Matrix : Default (H.263)
Codec ID : DX50
Codec ID/Hint : DivX 5
Duration : 1h 56mn
Bit rate : 900 Kbps
Width : 640 pixels
Height : 368 pixels
Display aspect ratio : 1.739
Frame rate : 25.000 fps
Color space : YUV
Chroma subsampling : 4:2:0
Bit depth : 8 bits
Scan type : Progressive
Compression mode : Lossy
Bits/(Pixel*Frame) : 0.153
Stream size : 748 MiB (82%)
Writing library : DivX 5.0.2 (UTC 2002-05-16)
Audio
ID : 1
Format : AC-3
Format/Info : Audio Coding 3
Mode extension : CM (complete main)
Format settings, Endianness : Big
Codec ID : 2000
Duration : 1h 56mn
Bit rate mode : Constant
Bit rate : 192 Kbps
Channel(s) : 2 channels
Channel positions : Front: L R
Sampling rate : 48.0 KHz
Bit depth : 16 bits
Compression mode : Lossy
Stream size : 160 MiB (17%)
Alignment : Split accross interleaves
Interleave, duration : 40 ms (1.00 video frame)
Interleave, preload duration : 500 ms

Скриншот c названием фильма

Скриншоты

To download the content you need:
1. Download and install torrent client [for Windows] or for mobile system
2. Click on [Download]
Attention.
If the test YOU are NOT a ROBOT - does not work, then You are using an outdated browser.
Install the current browser and click on [Download]
Security: torrent client is allowed by Kaspersky.

[en.asmlocator.ru].t3759.torrent 
Torrent: Registered [ 2015-11-30 05:45 ] · 6D3678EB5261DC28C4721DB5D784562DB03038F7

Download .torrent

Download

18 KB

Status: checked
Completed: 0 times
Size: 916 MB
terms.php
[Profile] [PM]
Display posts:    
Reply to topic

Current time is: 14-Dec 01:19

All times are UTC ± 0



You cannot post new topics in this forum
You cannot reply to topics in this forum
You cannot edit your posts in this forum
You cannot delete your posts in this forum
You cannot vote in polls in this forum
You cannot attach files in this forum
You can download files in this forum
Верим фактам, а не вранью Путина! Факт, что Правительство ведёт Россию к истреблению.
Так как численность населения падает, даже не смотря на приток эмигрантов!
Русская нация вымирает и вырождается, смешиваясь с эмигрантами!
Факт, что военных и граждан предприятий заставляют голосовать за партию Единая Россия и Путина
ПОД СТРАХОМ УВОЛЬНЕНИЯ!
Нам не нужно Правительство, блокирующее личную жизнь, интернет, нарушающее сохранность данных.
Все эти действия финансируются за счёт народа!