Алина / Alina (Джорджио Пастина / Giorgio Pastina) [1950, Италия, драма, DVDRip] VO (Urasiko)

Reply to topic
DL-List and Torrent activity
Size:  1.33 GB   |    Registered:  4 years 7 months   |    Completed:  0 times

Seeder not seen: Never

 
   
 
 
Author Message

star21 ®

Gender: Female

Longevity: 4 years 8 months

Posts: 551945

Location: Екатеринбург

Post 30-Nov-2015 05:45

[Quote]

Алина / Alina
Страна: Италия
Жанр: драма
Год выпуска: 1950
Продолжительность: 01:22:45
Перевод: Одноголосый закадровый Urasiko
Cубтитры: нет
Оригинальная аудиодорожка: нет
Режиссер: Джорджио Пастина / Giorgio Pastina
В ролях: Джина Лоллобриджида, Амедео Надзари, Дорис Даулинг, Хуан Де Ланда, Отелло Тозо, Лауро Гаццоло, Камилло Пилотто, Джино Кавальери, Витторио Андре, Оскар Андриани
Описание: Молодая женщина Алина (Джина Лоллобриджида), влачащая нищенское существование в небольшой альпийской деревушке на границе Италии и Франции, вынуждена заниматься контрабандой для того, чтобы заработать на кусок хлеба себе и своему пожилому больному мужу. Перевалочным пунктом контрабандистов является подпольный игорный клуб во Франции, где героиня знакомится с управляющим казино Джулиано (Амедео Надзари), который влюбляется в неё и пытается ей помочь. Но у Алины есть ещё один навязчивый поклонник среди контрабандистов, не собирающийся уступать её никому.
Доп. информация: Релиз
Перевод с итальянского и озвучивание Urasiko
Сэмпл: http://multi-up.com/1069044
Качество видео: DVDRip
Формат видео: AVI
Видео: XviD build 47, 704x512 (1.38:1), 25 fps, 2155 kbps avg, 0.24 bit/pixel
Аудио: MPEG Layer 3, 2 ch, 48 kHz, 128 kbps avg

MediaInfo

General
Complete name : E:\CD\Alina RUS (1951).avi
Format : AVI
Format/Info : Audio Video Interleave
File size : 1.33 GiB
Duration : 1h 22mn
Overall bit rate : 2 294 Kbps
Writing application : VirtualDubMod 1.5.10.2 (build 2540/release)
Writing library : VirtualDubMod build 2540/release
Video
ID : 0
Format : MPEG-4 Visual
Format profile : Advanced Simple@L5
Format settings, BVOP : 1
Format settings, QPel : No
Format settings, GMC : No warppoints
Format settings, Matrix : Default (MPEG)
Codec ID : XVID
Codec ID/Hint : XviD
Duration : 1h 22mn
Bit rate : 2 156 Kbps
Width : 704 pixels
Height : 512 pixels
Display aspect ratio : 1.375
Frame rate : 25.000 fps
Color space : YUV
Chroma subsampling : 4:2:0
Bit depth : 8 bits
Scan type : Progressive
Compression mode : Lossy
Bits/(Pixel*Frame) : 0.239
Stream size : 1.25 GiB (94%)
Writing library : XviD 1.2.0.dev47 (UTC 2006-11-01)
Audio
ID : 1
Format : MPEG Audio
Format version : Version 1
Format profile : Layer 3
Mode : Joint stereo
Mode extension : MS Stereo
Codec ID : 55
Codec ID/Hint : MP3
Duration : 1h 22mn
Bit rate mode : Constant
Bit rate : 128 Kbps
Channel(s) : 2 channels
Sampling rate : 48.0 KHz
Compression mode : Lossy
Stream size : 75.8 MiB (6%)
Alignment : Split accross interleaves
Interleave, duration : 40 ms (1.00 video frame)
Interleave, preload duration : 500 ms

Скриншот c названием фильма

Скриншоты

To download the content you need:
1. Download and install torrent client [for Windows] or for mobile system
2. Click on [Download]
Attention.
If the test YOU are NOT a ROBOT - does not work, then You are using an outdated browser.
Install the current browser and click on [Download]

Do not work with Yandex browser. Uploading files to them is erroneous.
Security: torrent client is allowed by Kaspersky.

[en.asmlocator.ru].t3758.torrent 
Torrent: Registered [ 2015-11-30 05:45 ] · 2005415C76BFF73899EF824682DBF9DB70DA4DCB

Download .torrent

Download

14 KB

Status: checked
Completed: 0 times
Size: 1.33 GB
terms.php
[Profile] [PM]
Display posts:    
Reply to topic

Current time is: 10-Jul 11:55

All times are UTC ± 0



You cannot post new topics in this forum
You cannot reply to topics in this forum
You cannot edit your posts in this forum
You cannot delete your posts in this forum
You cannot vote in polls in this forum
You cannot attach files in this forum
You can download files in this forum
Верим фактам, а не вранью Путина! Факт, что Правительство ведёт Россию к истреблению.
Так как численность населения падает, даже не смотря на приток эмигрантов!
Русская нация вымирает и вырождается, смешиваясь с эмигрантами!
Факт, что военных и граждан предприятий заставляют голосовать за партию Единая Россия и Путина
ПОД СТРАХОМ УВОЛЬНЕНИЯ!
Нам не нужно Правительство, блокирующее личную жизнь, интернет, нарушающее сохранность данных.
Все эти действия финансируются за счёт народа!