Люди и волки / Uomini e Lupi (Джузеппе Де Сантис / Giuseppe De Santis, Леопольдо Савона / Leopoldo Savona) [1957, Италия, Франция, драма, DVDRip] VO (Urasiko)

Reply to topic
DL-List and Torrent activity
Size:  1.36 GB   |    Registered:  4 years   |    Completed:  0 times

Seeder not seen: Never

 
   
 
 
Author Message

star21 ®

Gender: Female

Longevity: 4 years 1 month

Posts: 551946

Location: Екатеринбург

Post 30-Nov-2015 05:45

[Quote]

Люди и волки / Uomini e Lupi
Страна: Италия, Франция
Жанр: драма
Год выпуска: 1957
Продолжительность: 01:35:56
Перевод: Одноголосый закадровый Urasiko
Cубтитры: нет
Оригинальная аудиодорожка: нет
Режиссер: Джузеппе Де Сантис / Giuseppe De Santis, Леопольдо Савона / Leopoldo Savona
В ролях: Сильвана Мангано, Ив Монтан, Педро Армендарис, Ирен Цефаро, Джулио Кали, Еуро Теодори, Джованни Матта, Гуидо Челано, Мария Луиза Роландо, Мария Дзаноли
Описание: В горах Италии с первыми заморозками, когда стада вместе с пастухами покидают возвышенности над которыми готово растянуться белое покрывало зимы, в горных ущельях раздается печальным эхом волчий вой, предвещая вылазку хищников. Единственная защита от них - волчатники, профессиональные охотники на волков, тихие и сильные как горы, среди которых они выросли. Эти люди не заводят хозяйство и ведут кочевой образ жизни, появляясь с первыми заморозками и исчезая с началом таяния снегов, подобно волкам, с которыми они ведут беспощадную схватку в течение всей зимы.
Доп. информация: Релиз
Перевод с итальянского и озвучивание Urasiko
Сэмпл: http://multi-up.com/1069051
Качество видео: DVDRip
Формат видео: AVI
Видео: XviD build 47, 704x384 (1.83:1), 25 fps, 1833 kbps avg, 0.27 bit/pixel
Аудио: Русская: AC-3, 48 KHz, 192 Kbps, 2 channels

MediaInfo

General
Complete name : E:\CD\Uomini e lupi Rus (1956).avi
Format : AVI
Format/Info : Audio Video Interleave
File size : 1.36 GiB
Duration : 1h 35mn
Overall bit rate : 2 035 Kbps
Writing application : VirtualDubMod 1.5.10.2 (build 2540/release)
Writing library : VirtualDubMod build 2540/release
Video
ID : 0
Format : MPEG-4 Visual
Format profile : Advanced Simple@L5
Format settings, BVOP : 1
Format settings, QPel : No
Format settings, GMC : No warppoints
Format settings, Matrix : Default (MPEG)
Codec ID : XVID
Codec ID/Hint : XviD
Duration : 1h 35mn
Bit rate : 1 834 Kbps
Width : 704 pixels
Height : 384 pixels
Display aspect ratio : 1.85:1
Frame rate : 25.000 fps
Color space : YUV
Chroma subsampling : 4:2:0
Bit depth : 8 bits
Scan type : Progressive
Compression mode : Lossy
Bits/(Pixel*Frame) : 0.271
Stream size : 1.23 GiB (90%)
Writing library : XviD 1.2.0.dev47 (UTC 2006-11-01)
Audio
ID : 1
Format : AC-3
Format/Info : Audio Coding 3
Mode extension : CM (complete main)
Format settings, Endianness : Big
Codec ID : 2000
Duration : 1h 35mn
Bit rate mode : Constant
Bit rate : 192 Kbps
Channel(s) : 2 channels
Channel positions : Front: L R
Sampling rate : 48.0 KHz
Bit depth : 16 bits
Compression mode : Lossy
Stream size : 132 MiB (9%)
Alignment : Split accross interleaves
Interleave, duration : 40 ms (1.00 video frame)
Interleave, preload duration : 500 ms

Скриншот c названием фильма

Скриншоты

To download the content you need:
1. Download and install torrent client [for Windows] or for mobile system
2. Click on [Download]
Attention.
If the test YOU are NOT a ROBOT - does not work, then You are using an outdated browser.
Install the current browser and click on [Download]
Security: torrent client is allowed by Kaspersky.

[en.asmlocator.ru].t3757.torrent 
Torrent: Registered [ 2015-11-30 05:45 ] · B75D6AA67F0FE2879F01E73E3C0907F9A8954AD1

Download .torrent

Download

14 KB

Status: checked
Completed: 0 times
Size: 1.36 GB
terms.php
[Profile] [PM]
Display posts:    
Reply to topic

Current time is: 05-Dec 14:44

All times are UTC ± 0



You cannot post new topics in this forum
You cannot reply to topics in this forum
You cannot edit your posts in this forum
You cannot delete your posts in this forum
You cannot vote in polls in this forum
You cannot attach files in this forum
You can download files in this forum
Верим фактам, а не вранью Путина! Факт, что Правительство ведёт Россию к истреблению.
Так как численность населения падает, даже не смотря на приток эмигрантов!
Русская нация вымирает и вырождается, смешиваясь с эмигрантами!
Факт, что военных и граждан предприятий заставляют голосовать за партию Единая Россия и Путина
ПОД СТРАХОМ УВОЛЬНЕНИЯ!
Нам не нужно Правительство, блокирующее личную жизнь, интернет, нарушающее сохранность данных.
Все эти действия финансируются за счёт народа!