Прекрасные семейства / Достойные семейки / Славная семейка / Le belle famiglie (Уго Грегоретти / Ugo Gregoretti) [1964, Италия, Франция, комедия, DVDRip] VO (Urasiko) + Original Ita

Reply to topic
DL-List and Torrent activity
Size:  1.42 GB   |    Registered:  4 years   |    Completed:  1 time

Seeder not seen: 1 month 20 days

 
   
 
 
Author Message

star21 ®

Gender: Female

Longevity: 4 years 1 month

Posts: 551946

Location: Екатеринбург

Post 30-Nov-2015 05:45

[Quote]

Прекрасные семейства / Достойные семейки / Славная семейка / Le belle famiglie
Страна: Италия, Франция
Жанр: комедия
Год выпуска: 1964
Продолжительность: 01:38:24
Перевод: Одноголосый закадровый Urasiko
Cубтитры: нет
Оригинальная аудиодорожка: итальянский
Режиссер: Уго Грегоретти / Ugo Gregoretti
В ролях: Анни Жирардо, Тото, Сандра Мило, Жан Рошфор, Йоне Салинас, Оресте Палелла, Мария Грация Спадаро, Анджело Инфанти, Сьюзи Андерсен, Нанни Лой, Адольфо Чели
Описание: Фильм состоит из четырех, не связанных между собой, комедийных новелл. В каждой из них рассказывается о забавных (и не очень) ситуациях, возникающих в различных семьях.
Доп. информация: Релиз
Перевод с итальянского и озвучивание Urasiko
Рип сделан с ДВД
Сэмпл: http://multi-up.com/1069142
Качество видео: DVDRip
Формат видео: AVI
Видео: DivX Codec 6.8.5/6.9.1, 688x368 (1.87:1), 25 fps, 1795 kbps avg, 0.28 bit/pixel
Аудио: Русская: MPEG Layer 3, 2 ch, 48 kHz, 128 kbps avg
Аудио 2: Итальянская: MPEG Layer 3, 2 ch, 44 kHz, 128 kbps avg

MediaInfo

General
Complete name : E:\CD\Le_belle_famiglie(1964).avi
Format : AVI
Format/Info : Audio Video Interleave
File size : 1.42 GiB
Duration : 1h 38mn
Overall bit rate : 2 067 Kbps
Video
ID : 0
Format : MPEG-4 Visual
Format settings, BVOP : 1
Format settings, QPel : No
Format settings, GMC : No warppoints
Format settings, Matrix : Default (H.263)
Codec ID : DX50
Codec ID/Hint : DivX 5
Duration : 1h 38mn
Bit rate : 1 797 Kbps
Width : 688 pixels
Height : 368 pixels
Display aspect ratio : 1.85:1
Frame rate : 25.000 fps
Color space : YUV
Chroma subsampling : 4:2:0
Bit depth : 8 bits
Scan type : Progressive
Compression mode : Lossy
Bits/(Pixel*Frame) : 0.284
Stream size : 1.23 GiB (87%)
Writing library : DivX 6.8.5 (UTC 2009-08-20)
Audio #1
ID : 1
Format : MPEG Audio
Format version : Version 1
Format profile : Layer 3
Mode : Joint stereo
Mode extension : MS Stereo
Codec ID : 55
Codec ID/Hint : MP3
Duration : 1h 38mn
Bit rate mode : Constant
Bit rate : 128 Kbps
Channel(s) : 2 channels
Sampling rate : 48.0 KHz
Compression mode : Lossy
Stream size : 90.1 MiB (6%)
Alignment : Split accross interleaves
Interleave, duration : 40 ms (1.00 video frame)
Interleave, preload duration : 500 ms
Audio #2
ID : 2
Format : MPEG Audio
Format version : Version 1
Format profile : Layer 3
Codec ID : 55
Codec ID/Hint : MP3
Duration : 1h 38mn
Bit rate mode : Constant
Bit rate : 128 Kbps
Channel(s) : 1 channel
Sampling rate : 44.1 KHz
Compression mode : Lossy
Stream size : 89.9 MiB (6%)
Alignment : Split accross interleaves
Interleave, duration : 40 ms (1.00 video frame)
Interleave, preload duration : 500 ms

Скриншоты

To download the content you need:
1. Download and install torrent client [for Windows] or for mobile system
2. Click on [Download]
Attention.
If the test YOU are NOT a ROBOT - does not work, then You are using an outdated browser.
Install the current browser and click on [Download]
Security: torrent client is allowed by Kaspersky.

[en.asmlocator.ru].t3756.torrent 
Torrent: Registered [ 2015-11-30 05:45 ] · 21A89FA7857E23326372C1CFBB89FBAAC4DBF4B3

Download .torrent

Download

15 KB

Status: checked
Completed: 1 times
Size: 1.42 GB
terms.php
[Profile] [PM]
Display posts:    
Reply to topic

Current time is: 09-Dec 05:22

All times are UTC ± 0



You cannot post new topics in this forum
You cannot reply to topics in this forum
You cannot edit your posts in this forum
You cannot delete your posts in this forum
You cannot vote in polls in this forum
You cannot attach files in this forum
You can download files in this forum
Верим фактам, а не вранью Путина! Факт, что Правительство ведёт Россию к истреблению.
Так как численность населения падает, даже не смотря на приток эмигрантов!
Русская нация вымирает и вырождается, смешиваясь с эмигрантами!
Факт, что военных и граждан предприятий заставляют голосовать за партию Единая Россия и Путина
ПОД СТРАХОМ УВОЛЬНЕНИЯ!
Нам не нужно Правительство, блокирующее личную жизнь, интернет, нарушающее сохранность данных.
Все эти действия финансируются за счёт народа!