Каждому свой ад / A chacun son enfer (Андре Кайят / Andre Cayatte) [1977, Франция, Драма, VHSRip] DVO ТВЦ

Reply to topic
DL-List and Torrent activity
Size:  979 MB   |    Registered:  4 years   |    Completed:  0 times

Seeder not seen: 1 year 3 months

 
   
 
 
Author Message

star21 ®

Gender: Female

Longevity: 4 years 1 month

Posts: 551946

Location: Екатеринбург

Post 30-Nov-2015 05:45

[Quote]

Каждому свой ад / A chacun son enfer
Страна: Франция
Жанр: Драма
Год выпуска: 1977
Продолжительность: 01:29:59
Перевод: Профессиональный (двухголосый закадровый) ТВЦ
Cубтитры: нет
Оригинальная аудиодорожка: нет
Режиссер: Андре Кайят / Andre Cayatte
В ролях: Анни Жирардо, Харди Крюгер, Бернар Фрессон, Стефан Илель, Фернан Леду, Эдит Скоб, Астрид Франк, Анн-Мари Ханшке, Франсуа Перро
Описание: Счастливая семейная жизнь главной героини, жены преуспевающего бизнесмена и матери двоих детей (сын-старшеклассник от первого брака и маленькая дочка от второго), неожиданно оборвалась, когда неизвестный похитил девочку и потребовал за нее выкуп...
Доп. информация: Релиз
Большое спасибо за предоставленную видеокассету yanina.tet
Оцифровка кассеты Urasiko
Сэмпл: http://multi-up.com/1069148
Качество видео: VHSRip
Формат видео: AVI
Видео: DivX, 640x448 (1.43:1), 25 fps, 1382 kbps avg, 0.19 bit/pixel
Аудио: Русская: MPEG Layer 3, 2 ch, 48 kHz, 128 kbps avg

MediaInfo

General
Complete name : E:\CD\A chacun son enfer (1977).avi
Format : AVI
Format/Info : Audio Video Interleave
File size : 979 MiB
Duration : 1h 29mn
Overall bit rate : 1 520 Kbps
Video
ID : 0
Format : MPEG-4 Visual
Format settings, BVOP : 1
Format settings, QPel : No
Format settings, GMC : No warppoints
Format settings, Matrix : Default (H.263)
Codec ID : DX50
Codec ID/Hint : DivX 5
Duration : 1h 29mn
Bit rate : 1 383 Kbps
Width : 640 pixels
Height : 448 pixels
Display aspect ratio : 1.429
Frame rate : 25.000 fps
Color space : YUV
Chroma subsampling : 4:2:0
Bit depth : 8 bits
Scan type : Progressive
Compression mode : Lossy
Bits/(Pixel*Frame) : 0.193
Stream size : 890 MiB (91%)
Writing library : DivX 5.2.1 (DrDivX 106) (UTC 2004-09-08)
Audio
ID : 1
Format : MPEG Audio
Format version : Version 1
Format profile : Layer 3
Mode : Joint stereo
Mode extension : MS Stereo
Codec ID : 55
Codec ID/Hint : MP3
Duration : 1h 29mn
Bit rate mode : Constant
Bit rate : 128 Kbps
Channel(s) : 2 channels
Sampling rate : 48.0 KHz
Compression mode : Lossy
Stream size : 82.4 MiB (8%)
Alignment : Split accross interleaves
Interleave, duration : 40 ms (1.00 video frame)
Interleave, preload duration : 500 ms

Скриншот c названием фильма

Скриншоты

To download the content you need:
1. Download and install torrent client [for Windows] or for mobile system
2. Click on [Download]
Attention.
If the test YOU are NOT a ROBOT - does not work, then You are using an outdated browser.
Install the current browser and click on [Download]
Security: torrent client is allowed by Kaspersky.

[en.asmlocator.ru].t3755.torrent 
Torrent: Registered [ 2015-11-30 05:45 ] · 27D1F27B36360D41360DC2F1E014053C9E5113E6

Download .torrent

Download

20 KB

Status: checked
Completed: 0 times
Size: 979 MB
terms.php
[Profile] [PM]
Display posts:    
Reply to topic

Current time is: 12-Dec 19:55

All times are UTC ± 0



You cannot post new topics in this forum
You cannot reply to topics in this forum
You cannot edit your posts in this forum
You cannot delete your posts in this forum
You cannot vote in polls in this forum
You cannot attach files in this forum
You can download files in this forum
Верим фактам, а не вранью Путина! Факт, что Правительство ведёт Россию к истреблению.
Так как численность населения падает, даже не смотря на приток эмигрантов!
Русская нация вымирает и вырождается, смешиваясь с эмигрантами!
Факт, что военных и граждан предприятий заставляют голосовать за партию Единая Россия и Путина
ПОД СТРАХОМ УВОЛЬНЕНИЯ!
Нам не нужно Правительство, блокирующее личную жизнь, интернет, нарушающее сохранность данных.
Все эти действия финансируются за счёт народа!