Убийца должен убить снова / L\'assassino è costretto ad uccidere ancora / The Killer Must Kill Again (Луиджи Коцци / Luigi Cozzi) [1975, Италия, Франция, триллер, детектив, DVDRip] VO (lehachuev) + Sub Rus + Original Ita

Reply to topic
DL-List and Torrent activity
Size:  1.46 GB   |    Registered:  4 years   |    Completed:  0 times

Seeder not seen: 1 month 25 days

 
   
 
 
Author Message

star21 ®

Gender: Female

Longevity: 4 years 1 month

Posts: 551946

Location: Екатеринбург

Post 30-Nov-2015 05:45

[Quote]

Убийца должен убить снова / L'assassino è costretto ad uccidere ancora / The Killer Must Kill Again
Страна: Италия, Франция
Жанр: триллер, детектив
Год выпуска: 1975
Продолжительность: 01:30:27
Перевод: Одноголосый закадровый lehachuev
Cубтитры: русские
Оригинальная аудиодорожка: итальянский
Режиссер: Луиджи Коцци /Luigi Cozzi
В ролях: Джордж Хилтон, Антуан Сент-Джон, Феми Бенусси, Кристина Гальбо, Эдуардо Фахардо, Тереса Веласкес, Алессио Орано, Dario Griachi, Луиджи Антонио Гуэрра, Карла Манчини
Описание: Подкаблучник Джиорджио Маинарди, который стал невольным свидетелем того, как некий убийца в черном избавляется от трупа молодой девушки. Джиорджио заключает с этим человеком сделку, «заказав» ему свою жену, в надежде получить крупное наследство. Все должно было быть обставлено как похищение, и первая часть задания у киллера прошла гладко, но когда он положил труп в багажник своего мерседеса, и вернулся в дом, чтобы замести следы, его машину угоняет парочка безбашенных юнцов. Убийца, разумеется, бросается в погоню, а хитроумный план Джиорджио начинает трещать по швам…
Сэмпл: http://multi-up.com/1069312

Качество видео: DVDRip -
Формат видео: AVI
Видео: 704x304 (2.32:1), 23.976 fps, XviD, 1913 kbps, 0.37 bit/pixel
Аудио 1: 48 kHz, AC3 Dolby Digital, 2/0 (L,R) ch, 192 kbps, VO (lehachuev)
Аудио 2: 48 kHz, AC3 Dolby Digital, 2/0 (L,R) ch, 192 kbps, Original Ita

MediaInfo

General
Complete name : E:\Раздачи\rutracker.org\Ubiitsa_dolzhen_ubit_snova_1.46_by_max1wq\Ubiitsa_dolzhen_ubit_snova_1.46_by_max1wq.avi
Format : AVI
Format/Info : Audio Video Interleave
File size : 1.46 GiB
Duration : 1h 30mn
Overall bit rate : 2 312 Kbps
Writing application : VirtualDubMod 1.5.10.2 (build 2540/release)
Writing library : VirtualDubMod build 2540/release
Video
ID : 0
Format : MPEG-4 Visual
Format profile : Advanced Simple@L5
Format settings, BVOP : 1
Format settings, QPel : No
Format settings, GMC : No warppoints
Format settings, Matrix : Custom
Codec ID : XVID
Codec ID/Hint : XviD
Duration : 1h 30mn
Bit rate : 1 914 Kbps
Width : 704 pixels
Height : 304 pixels
Display aspect ratio : 2.35:1
Frame rate : 23.976 fps
Color space : YUV
Chroma subsampling : 4:2:0
Bit depth : 8 bits
Scan type : Progressive
Compression mode : Lossy
Bits/(Pixel*Frame) : 0.373
Stream size : 1.21 GiB (83%)
Writing library : XviD 73
Audio #1
ID : 1
Format : AC-3
Format/Info : Audio Coding 3
Mode extension : CM (complete main)
Format settings, Endianness : Big
Codec ID : 2000
Duration : 1h 30mn
Bit rate mode : Constant
Bit rate : 192 Kbps
Channel(s) : 2 channels
Channel positions : Front: L R
Sampling rate : 48.0 KHz
Compression mode : Lossy
Stream size : 124 MiB (8%)
Alignment : Split accross interleaves
Interleave, duration : 42 ms (1.00 video frame)
Interleave, preload duration : 500 ms
Audio #2
ID : 2
Format : AC-3
Format/Info : Audio Coding 3
Mode extension : CM (complete main)
Format settings, Endianness : Big
Codec ID : 2000
Duration : 1h 30mn
Bit rate mode : Constant
Bit rate : 192 Kbps
Channel(s) : 2 channels
Channel positions : Front: L R
Sampling rate : 48.0 KHz
Compression mode : Lossy
Stream size : 124 MiB (8%)
Alignment : Split accross interleaves
Interleave, duration : 42 ms (1.00 video frame)
Interleave, preload duration : 500 ms
General
Complete name : E:\Раздачи\rutracker.org\Ubiitsa_dolzhen_ubit_snova_1.46_by_max1wq\Ubiitsa_dolzhen_ubit_snova_1.46_by_max1wq.srt
Format : SubRip
File size : 42.4 KiB
Text
Format : SubRip
Compression mode : Lossless

To download the content you need:
1. Download and install torrent client [for Windows] or for mobile system
2. Click on [Download]
Attention.
If the test YOU are NOT a ROBOT - does not work, then You are using an outdated browser.
Install the current browser and click on [Download]
Security: torrent client is allowed by Kaspersky.

[en.asmlocator.ru].t3754.torrent 
Torrent: Registered [ 2015-11-30 05:45 ] · D347DD97332A4424147A39E75C34917613C3C4AB

Download .torrent

Download

15 KB

Status: checked
Completed: 0 times
Size: 1.46 GB
terms.php
[Profile] [PM]
Display posts:    
Reply to topic

Current time is: 14-Dec 20:30

All times are UTC ± 0



You cannot post new topics in this forum
You cannot reply to topics in this forum
You cannot edit your posts in this forum
You cannot delete your posts in this forum
You cannot vote in polls in this forum
You cannot attach files in this forum
You can download files in this forum
Верим фактам, а не вранью Путина! Факт, что Правительство ведёт Россию к истреблению.
Так как численность населения падает, даже не смотря на приток эмигрантов!
Русская нация вымирает и вырождается, смешиваясь с эмигрантами!
Факт, что военных и граждан предприятий заставляют голосовать за партию Единая Россия и Путина
ПОД СТРАХОМ УВОЛЬНЕНИЯ!
Нам не нужно Правительство, блокирующее личную жизнь, интернет, нарушающее сохранность данных.
Все эти действия финансируются за счёт народа!