Будущие звезды / Futures vedettes (Марк Аллегре / Marc Allégret) [1955, Франция, комедия, драма, экранизация, DVDRip] VO (Urasiko) + Original Fre

Reply to topic
DL-List and Torrent activity
Size:  1.45 GB   |    Registered:  4 years   |    Completed:  0 times

Seeder not seen: 1 year 9 months

 
   
 
 
Author Message

star21 ®

Gender: Female

Longevity: 4 years 1 month

Posts: 551946

Location: Екатеринбург

Post 30-Nov-2015 05:45

[Quote]

Будущие звезды / Futures vedettes
Страна: Франция
Жанр: комедия, драма, экранизация
Год выпуска: 1955
Продолжительность: 01:32:38
Перевод: Одноголосый закадровый Urasiko
Оригинальная аудиодорожка: французский
Режиссер: Марк Аллегре / Marc Allégret
В ролях: Жан Маре, Брижитт Бардо, Изабель Пиа, Ив Робер, Дениз Ноэль, Миша Ауэр, Лиля Кедрова, Милен Демонжо, Роже Вадим, Даниэль Эмильфорк
Описание: По роману Вики Баум / Vicki Baum "Полет судьбы / Schicksalsflug / Flight of Fate" (1947). Адаптация и диалоги Роже Вадима.
Элиза и Софи – очаровательные студентки Венской консерватории – соперничают в своем увлечении молодым преподавателем-профессором Эриком Вальтером. Однако, в конце концов, к мэтру возвращается любимая им жена. Мари отменила свое решение о разводе, и любовный треугольник распался, во славу семейного очага...
Воспринятый некогда, как вызов традиционной морали, сегодня фильм кажется трогательно наивным и чистым. Чтобы сохранить колорит книги Викки Баум, Аллегре все натурные съемки провел в Вене. Здание школы, старый университет в центре города, дом профессора в Гринциге – все настоящее. (Александр Минаев)
Доп. информация: Релиз
Озвучивание Urasiko
Озвучено по субтитрам М. Кузиной, éclair Group
За рип большое спасибо PMV
Сэмпл: http://multi-up.com/1069627
Качество видео: DVDRip
Формат видео: AVI
Видео: XviD build 73, 640x480 (1.33:1), 25 fps, 1974 kbps avg, 0.26 bit/pixel
Аудио: Русская: MPEG Layer 3, 48.0 KHz, 2 ch, 128 Kbps
Аудио 2: Французская: MPEG Layer 3, 48.0 KHz, 2 ch, 128 Kbps

MediaInfo

General
Complete name : D:\Internet\Futures vedettes (1955, rus+fre).avi
Format : AVI
Format/Info : Audio Video Interleave
File size : 1.45 GiB
Duration : 1h 32mn
Overall bit rate : 2 245 Kbps
Writing application : VirtualDubMod 1.5.10.3 | www.virtualdub-fr.org || (build 2550/release)
Writing library : VirtualDubMod build 2550/release
Video
ID : 0
Format : MPEG-4 Visual
Format profile : Advanced Simple@L5
Format settings, BVOP : 2
Format settings, QPel : No
Format settings, GMC : No warppoints
Format settings, Matrix : Default (H.263)
Codec ID : XVID
Codec ID/Hint : XviD
Duration : 1h 32mn
Bit rate : 1 975 Kbps
Width : 640 pixels
Height : 480 pixels
Display aspect ratio : 4:3
Frame rate : 25.000 fps
Color space : YUV
Chroma subsampling : 4:2:0
Bit depth : 8 bits
Scan type : Progressive
Compression mode : Lossy
Bits/(Pixel*Frame) : 0.257
Stream size : 1.28 GiB (88%)
Writing library : XviD 73
Audio #1
ID : 1
Format : MPEG Audio
Format version : Version 1
Format profile : Layer 3
Mode : Joint stereo
Mode extension : MS Stereo
Codec ID : 55
Codec ID/Hint : MP3
Duration : 1h 32mn
Bit rate mode : Constant
Bit rate : 128 Kbps
Channel(s) : 2 channels
Sampling rate : 48.0 KHz
Compression mode : Lossy
Stream size : 84.8 MiB (6%)
Alignment : Aligned on interleaves
Interleave, duration : 40 ms (1.00 video frame)
Interleave, preload duration : 504 ms
Audio #2
ID : 2
Format : MPEG Audio
Format version : Version 1
Format profile : Layer 3
Mode : Joint stereo
Mode extension : MS Stereo
Codec ID : 55
Codec ID/Hint : MP3
Duration : 1h 32mn
Bit rate mode : Constant
Bit rate : 128 Kbps
Channel(s) : 2 channels
Sampling rate : 48.0 KHz
Compression mode : Lossy
Stream size : 84.8 MiB (6%)
Alignment : Aligned on interleaves
Interleave, duration : 40 ms (1.00 video frame)
Interleave, preload duration : 504 ms

Скриншот c названием фильма

Скриншоты

To download the content you need:
1. Download and install torrent client [for Windows] or for mobile system
2. Click on [Download]
Attention.
If the test YOU are NOT a ROBOT - does not work, then You are using an outdated browser.
Install the current browser and click on [Download]
Security: torrent client is allowed by Kaspersky.

[en.asmlocator.ru].t3749.torrent 
Torrent: Registered [ 2015-11-30 05:45 ] · 83696E1A52805841BADB3FF32EA36F968688C555

Download .torrent

Download

15 KB

Status: checked
Completed: 0 times
Size: 1.45 GB
terms.php
[Profile] [PM]
Display posts:    
Reply to topic

Current time is: 10-Dec 07:09

All times are UTC ± 0



You cannot post new topics in this forum
You cannot reply to topics in this forum
You cannot edit your posts in this forum
You cannot delete your posts in this forum
You cannot vote in polls in this forum
You cannot attach files in this forum
You can download files in this forum
Верим фактам, а не вранью Путина! Факт, что Правительство ведёт Россию к истреблению.
Так как численность населения падает, даже не смотря на приток эмигрантов!
Русская нация вымирает и вырождается, смешиваясь с эмигрантами!
Факт, что военных и граждан предприятий заставляют голосовать за партию Единая Россия и Путина
ПОД СТРАХОМ УВОЛЬНЕНИЯ!
Нам не нужно Правительство, блокирующее личную жизнь, интернет, нарушающее сохранность данных.
Все эти действия финансируются за счёт народа!