Киндар Неуязвимый / Kindar, l\'invulnerabile (Освальдо Чивириани / Osvaldo Civirani) [1965, Италия, Египет, боевик, мелодрама, приключения, костюмированый, VHSRip] VO (SATKUR) + Original Eng

Reply to topic
DL-List and Torrent activity
Size:  1.29 GB   |    Registered:  4 years   |    Completed:  0 times

Seeder not seen: 1 year 4 months

 
   
 
 
Author Message

star21 ®

Gender: Female

Longevity: 4 years 1 month

Posts: 551946

Location: Екатеринбург

Post 30-Nov-2015 05:45

[Quote]

Киндар Неуязвимый / Kindar, l'invulnerabile
Страна: Италия, Египет
Жанр: боевик, мелодрама, приключения, костюмированый
Год выпуска: 1965
Продолжительность: 01:26:56
Перевод: Одноголосый закадровый SATKUR
Cубтитры: нет
Оригинальная аудиодорожка: английский
Режиссер: Освальдо Чивириани / Osvaldo Civirani
В ролях: Марк Форест
Миммо Пальмара
Розальба Нери
Дея Флауэрс
Ховард Росс
Джулио Томазини
Хуссейн Кэндил
Описание: Киндар, сын султана Эмана, при рождении получил волшебный дар неуязвимости. Но об этом прознал предводитель разбойников Сиро, который выкрал чудесного ребенка и вырастил его как своего сына. Спустя годы Сиро с помощью Киндара решает лишить султана трона. В одном из сражений к нему в плен попадает второй сын Эмана, принц Сеймут. Разбойник приказывает Киндару убить наследника престола, но тот, пораженный мужеством и стойкостью принца в схватке с неуязвимым героем, щадит своего противника и вскоре становится его лучшим другом…
Доп. информация: Озвучено по субтитрам Андрей-д, РИП с SVHS
Сэмпл: http://multi-up.com/1069545
Качество видео: VHSRip
Формат видео: AVI
Видео: 688x368 (1,85:1), 25 fps, XviD ~1731 kbps avg, 0.273 bit/pixel
Аудио 1: 48 kHz, AC3 Dolby Digital, 2/0 (L,R) ch, ~192.00 kbps - русский
Аудио 2: 48 kHz, AC3 Dolby Digital, 2/0 (L,R) ch, ~192.00 kbps - английский

MediaInfo

Общее
Полное имя : F:\FILMY\FILM-2015\Disk-104\Киндар неуязвимый\Kindar.linvulnerabile.1965.Ita-Egipt.[vo.satkur+eng].AC3.Rus\Kindar.linvulnerabile.1965.Ita-Egipt.[vo.satkur+eng].AC3.Rus.avi
Формат : AVI
Формат/Информация : Audio Video Interleave
Размер файла : 1,29 Гбайт
Продолжительность : 1 ч. 26 м.
Общий поток : 2129 Кбит/сек
Программа кодирования : VirtualDubModRus 1.5.10.2 (build 2542/release)
Библиотека кодирования : VirtualDubMod build 2542/release
Видео
Идентификатор : 0
Формат : MPEG-4 Visual
Профиль формата : Simple@L1
Параметр BVOP формата : Нет
Параметр QPel формата : Нет
Параметр GMC формата : Без точки перехода
Параметр матрицы формата : Default (H.263)
Идентификатор кодека : XVID
Идентификатор кодека/Подсказка : XviD
Продолжительность : 1 ч. 26 м.
Битрейт : 1731 Кбит/сек
Ширина : 688 пикселей
Высота : 368 пикселей
Соотношение сторон : 1,85:1
Частота кадров : 25,000 кадров/сек
Цветовое пространство : YUV
Субдискретизация насыщенности : 4:2:0
Битовая глубина : 8 бит
Тип развёртки : Прогрессивная
Метод сжатия : С потерями
Бит/(Пиксели*Кадры) : 0.273
Размер потока : 1,05 Гбайт (81%)
Библиотека кодирования : Lavc52.84.0
Аудио #1
Идентификатор : 1
Формат : AC-3
Формат/Информация : Audio Coding 3
Расширение режима : CM (complete main)
Параметр Endianness формата : Big
Идентификатор кодека : 2000
Продолжительность : 1 ч. 26 м.
Вид битрейта : Постоянный
Битрейт : 192 Кбит/сек
Каналы : 2 канала
Расположение каналов : Front: L R
Частота : 48,0 КГц
Битовая глубина : 16 бит
Метод сжатия : С потерями
Размер потока : 119 Мбайт (9%)
Выравнивание : Разделение по промежуткам
Продолжительность промежутка : 40 мс. (1,00 видеокадр)
Время предзагрузки промежутка : 500 мс.
Аудио #2
Идентификатор : 2
Формат : AC-3
Формат/Информация : Audio Coding 3
Расширение режима : CM (complete main)
Параметр Endianness формата : Big
Идентификатор кодека : 2000
Продолжительность : 1 ч. 26 м.
Вид битрейта : Постоянный
Битрейт : 192 Кбит/сек
Каналы : 2 канала
Расположение каналов : Front: L R
Частота : 48,0 КГц
Битовая глубина : 16 бит
Метод сжатия : С потерями
Размер потока : 119 Мбайт (9%)
Выравнивание : Разделение по промежуткам
Продолжительность промежутка : 40 мс. (1,00 видеокадр)
Время предзагрузки промежутка : 500 мс.

Скриншот c названием фильма

To download the content you need:
1. Download and install torrent client [for Windows] or for mobile system
2. Click on [Download]
Attention.
If the test YOU are NOT a ROBOT - does not work, then You are using an outdated browser.
Install the current browser and click on [Download]
Security: torrent client is allowed by Kaspersky.

[en.asmlocator.ru].t3748.torrent 
Torrent: Registered [ 2015-11-30 05:45 ] · 5747FEE6FD977C44E961C4D227332CCAB0AD0AFA

Download .torrent

Download

14 KB

Status: checked
Completed: 0 times
Size: 1.29 GB
terms.php
[Profile] [PM]
Display posts:    
Reply to topic

Current time is: 08-Dec 15:24

All times are UTC ± 0



You cannot post new topics in this forum
You cannot reply to topics in this forum
You cannot edit your posts in this forum
You cannot delete your posts in this forum
You cannot vote in polls in this forum
You cannot attach files in this forum
You can download files in this forum
Верим фактам, а не вранью Путина! Факт, что Правительство ведёт Россию к истреблению.
Так как численность населения падает, даже не смотря на приток эмигрантов!
Русская нация вымирает и вырождается, смешиваясь с эмигрантами!
Факт, что военных и граждан предприятий заставляют голосовать за партию Единая Россия и Путина
ПОД СТРАХОМ УВОЛЬНЕНИЯ!
Нам не нужно Правительство, блокирующее личную жизнь, интернет, нарушающее сохранность данных.
Все эти действия финансируются за счёт народа!