Миссис Паркингтон / Mrs. Parkington (Тэй Гарнетт / Tay Garnett) [1944, США, драма, мелодрама, DVDRip] VO (Алексей Яковлев) + Original Eng

Reply to topic
DL-List and Torrent activity
Size:  1.62 GB   |    Registered:  4 years   |    Completed:  0 times

Seeder not seen: Never

 
   
 
 
Author Message

star21 ®

Gender: Female

Longevity: 4 years 1 month

Posts: 551946

Location: Екатеринбург

Post 30-Nov-2015 05:45

[Quote]

Миссис Паркингтон / Mrs. Parkington
Страна: США
Жанр: драма, мелодрама
Год выпуска: 1944
Продолжительность: 02:03:51
Перевод: Одноголосый закадровый -
Cубтитры: нет
Оригинальная аудиодорожка: английский
Режиссер: Тэй Гарнетт / Tay Garnett
Композитор: Бронислав Капер / Bronislau Kaper
В ролях: Грир Гарсон / Greer Garson ... Susie «Sparrow» Parkington
Уолтер Пиджен / Walter Pidgeon ... Major Augustus Parkington
Эдвард Арнольд / Edward Arnold ... Amory Stilham
Агнес Мурхед / Agnes Moorehead ... Baroness Aspasia Conti
Сесил Келлауэй / Cecil Kellaway ... Edward - Prince of Wales
Глэдис Купер / Gladys Cooper ... Alice - Dutchess de Brancourt
Фрэнсис Рафферти / Frances Rafferty ... Jane Stilham
Том Дрэйк / Tom Drake ... Ned Talbot
Питер Лоуфорд / Peter Lawford ... Lord Thornley
Дэн Дюрьи / Dan Duryea ... Jack Stilham
Хью Марлоу / Hugh Marlowe ... John Marbey
Селена Ройл / Selena Royle ... Mattie Trounson
Фортунио Бонанова / Fortunio Bonanova ... Signor Cellini
Ли Патрик / Lee Patrick ... Madeleine Parkington Swann
Гарри Кординг / Harry Cording ... Humphrey
Род Камерон / Rod Cameron ... Al Swann
Хелен Фриман / Helen Freeman ... Helen Stilham
Тала Бирелл / Tala Birell ... Lady Nora Ebbsworth
Ганс Конрид / Hans Conried ... Mr. Ernst

Описание: Экранизация романа Луиса Бромфилда / Louis Bromfield.
Сьюзи Паркингтон вспоминает историю своей жизни, которая пошла по новому пути после судьбоносной встречи с богачом Огастусом Паркингтоном. С нефтяником, финансистом и будущим супругом горничная познакомилась в отеле в Неваде, откуда он увез ее в Нью-Йорк, сделав из привыкшей к трудностям простушки даму из высшего общества. Но не всё на этом пути было гладко и безмятежно. Деньги, бизнес и личное счастье не всегда между собой в ладу. Много выпало на долю Сьюзи взлетов и падений, уроков и испытаний.
Золотой глобус, 1945 год
Победитель (1):
Лучшая женская роль второго плана ( Агнес Мурхед )

Дополнительная информация:
- Это четвёртый из восьми фильмов, в которых вместе снялись Грир Гарсон и Уолтер Пиджен.--БОЛЬШОЕ СПАСИБО:
Работа со звуком и реавторинг DVD -
Перевод и озвучивание фильма -
Также Большое Спасибо всем, кто принял участие в появлении озвучки к этому фильму:
Магда, Lafajet, jasenka, елена 22, yanaelisa, cementit, HippopotamusIV, BaluBaly, leoder, voostorg, old76, spartakeynoir, surzhoks, sveta_pula, mumzik69, mangust1, Ugo927, GalaUkr, борюська, and76ss, duum100
--Сэмпл: http://multi-up.com/1069641
Качество видео: DVDRip
Формат видео: AVI
Видео: XviD, 640x480 (4:3), 23.976 fps, 1483 Kbps
Аудио 1: AC3, 48.0 KHz, 2 ch., 192 Kbps (русский одноголосый закадровый перевод) - Алексей Яковлев
Аудио 2: AC3, 48.0 KHz, 2 ch., 192 Kbps (оригинальная английская звуковая дорожка, лежит отдельно)
(см. "Программы для работы с контейнерами" - > "VirtualDub" или "AVI-Mux")

MediaInfo

AVI-файл:
Общее
Полное имя : K:\раздачи\Mrs. Parkington 1944\Mrs. Parkington.avi
Формат : AVI
Формат/Информация : Audio Video Interleave
Размер файла : 1,46 Гбайт
Продолжительность : 2 ч. 3 м.
Общий поток : 1684 Кбит/сек
Программа кодирования : VirtualDubMod 1.5.10.3 | www.virtualdub-fr.org || (build 2550/release)
Библиотека кодирования : VirtualDubMod build 2550/release
Видео
Идентификатор : 0
Формат : MPEG-4 Visual
Профиль формата : Advanced Simple@L5
Параметр BVOP формата : 2
Параметр QPel формата : Нет
Параметр GMC формата : Без точки перехода
Параметр матрицы формата : Default (H.263)
Идентификатор кодека : DX50
Идентификатор кодека/Подсказка : DivX 5
Продолжительность : 2 ч. 3 м.
Битрейт : 1483 Кбит/сек
Ширина : 640 пикселей
Высота : 480 пикселей
Соотношение сторон : 4:3
Частота кадров : 23,976 кадра/сек
Цветовое пространство : YUV
Субдискретизация насыщенности : 4:2:0
Битовая глубина : 8 бит
Тип развёртки : Прогрессивная
Метод сжатия : С потерями
Бит/(Пиксели*Кадры) : 0.201
Размер потока : 1,28 Гбайт (88%)
Библиотека кодирования : XviD 73
Аудио
Идентификатор : 1
Формат : AC-3
Формат/Информация : Audio Coding 3
Расширение режима : CM (complete main)
Параметр Endianness формата : Big
Идентификатор кодека : 2000
Продолжительность : 2 ч. 3 м.
Вид битрейта : Постоянный
Битрейт : 192 Кбит/сек
Каналы : 2 канала
Расположение каналов : Front: L R
Частота : 48,0 КГц
Битовая глубина : 16 бит
Метод сжатия : С потерями
Размер потока : 170 Мбайт (11%)
Выравнивание : Разделение по промежуткам
Продолжительность промежутка : 42 мс. (1,00 видеокадр)
Время предзагрузки промежутка : 500 мс.
английская оригинальная звуковая дорожка, лежит отдельно:
Общее
Полное имя : K:\раздачи\Mrs. Parkington 1944\Mrs. Parkington.ENG.ac3
Формат : AC-3
Формат/Информация : Audio Coding 3
Размер файла : 170 Мбайт
Продолжительность : 2 ч. 3 м.
Режим общего битрейта : Постоянный
Общий поток : 192 Кбит/сек
Аудио
Формат : AC-3
Формат/Информация : Audio Coding 3
Расширение режима : CM (complete main)
Параметр Endianness формата : Big
Продолжительность : 2 ч. 3 м.
Вид битрейта : Постоянный
Битрейт : 192 Кбит/сек
Каналы : 2 канала
Расположение каналов : Front: L R
Частота : 48,0 КГц
Битовая глубина : 16 бит
Метод сжатия : С потерями
Размер потока : 170 Мбайт (100%)

Исходник

To download the content you need:
1. Download and install torrent client [for Windows] or for mobile system
2. Click on [Download]
Attention.
If the test YOU are NOT a ROBOT - does not work, then You are using an outdated browser.
Install the current browser and click on [Download]
Security: torrent client is allowed by Kaspersky.

[en.asmlocator.ru].t3747.torrent 
Torrent: Registered [ 2015-11-30 05:45 ] · 7CE5671653C4AE837FD66262B5B5A1FEFEACB8C7

Download .torrent

Download

17 KB

Status: checked
Completed: 0 times
Size: 1.62 GB
terms.php
[Profile] [PM]
Display posts:    
Reply to topic

Current time is: 14-Dec 23:58

All times are UTC ± 0



You cannot post new topics in this forum
You cannot reply to topics in this forum
You cannot edit your posts in this forum
You cannot delete your posts in this forum
You cannot vote in polls in this forum
You cannot attach files in this forum
You can download files in this forum
Верим фактам, а не вранью Путина! Факт, что Правительство ведёт Россию к истреблению.
Так как численность населения падает, даже не смотря на приток эмигрантов!
Русская нация вымирает и вырождается, смешиваясь с эмигрантами!
Факт, что военных и граждан предприятий заставляют голосовать за партию Единая Россия и Путина
ПОД СТРАХОМ УВОЛЬНЕНИЯ!
Нам не нужно Правительство, блокирующее личную жизнь, интернет, нарушающее сохранность данных.
Все эти действия финансируются за счёт народа!