Вечеринка / The Party (Блейк Эдвардс / Blake Edwards) [1968, США, комедия, BDRip] MVO (Первый Канал)

Reply to topic
DL-List and Torrent activity
Size:  1.45 GB   |    Registered:  4 years   |    Completed:  0 times

Seeder not seen: Never

 
   
 
 
Author Message

star21 ®

Gender: Female

Longevity: 4 years 1 month

Posts: 551946

Location: Екатеринбург

Post 30-Nov-2015 05:45

[Quote]

Вечеринка / The Party
Год выпуска: 1968
Страна: США
Жанр: комедия
Продолжительность: 01:39:04
Перевод: Профессиональный (многоголосый закадровый) - Первый Канал
Cубтитры: нет
Режиссер: Блейк Эдвардс / Blake Edwards
В ролях: Питер Селлерс (Hrundi V. Bakshi), Клодин Лонже (Michele Monet), Наталия Борисова (Ballerina), Джин Карсон (Nanny), Мардж Чэмпион (Rosalind Dunphy), Аль Кекко (Bernard Stein), Корина Коул (Janice Kane), Дик Крокетт (Wells), Фрэнсис Дэвис (Maid), Даниэль Де Мец (Stella D'Angelo)-Мировая премьера: 4 апреля 1968-Описание: Мистера Хрунди Ви Бакши пригласили сниматься в кино. Он был слегка рассеян и случайно наступил на рычаг, что привело к взрыву дорогостоящей декорации крепости. Приглашение на ужин, которое так же случайно пришло на его адрес, приводит Бакши в дом директора пострадавшей киностудии. В этом шикарном особняке с бассейном и садом начинается «замечательная» вечеринка, о которой никогда не забудут все ее участники.-Огромная благодарность:
- .
- собственная запись перевода с Первого Канала в 2000-х годах через видеомагнитофон и оцифровка с видеокассеты.
- синхронизация перевода.-Данный перевод на трекере появляется впервые..-На русский язык фильм озвучен по заказу Первого Канала.
Текст читают Сергей Быстрицкий, Никита Прозоровский, Наталья Гурзо и Светлана Старикова.-Рейтинг

MPAA: PG - Рекомендуется присутствие родителей.-Качество видео: BDRip
Формат видео: AVI -> //СЭМПЛ//
Видео: XviD, 720x304 (2.35:1), 23.976 fps, 1900 kbps avg
Аудио:
1 - 48 khz, AC3 Dolby Digital, 2/0 (L,R) ch, ~192 kbps [Первый Канал] VHSRip

MediaInfo

General
Complete name : D:\Торрент Файлы\Будущие Релизы на Трекере\1.35 - 1.46 и более гб\Вечеринка (Первый Канал).avi
Format : AVI
Format/Info : Audio Video Interleave
File size : 1.45 GiB
Duration : 1h 39mn
Overall bit rate : 2 101 Kbps
Movie name : Вечеринка - The Party [by Edich2]
Director : Rip by Edich2
Writing application : VirtualDubMod 1.5.10.3 | www.virtualdub-fr.org || (build 2550/release)
Writing library : VirtualDubMod build 2550/release
Comment : RuTracker.org
Video
ID : 0
Format : MPEG-4 Visual
Format profile : Advanced Simple@L5
Format settings, BVOP : 2
Format settings, QPel : No
Format settings, GMC : No warppoints
Format settings, Matrix : Custom
Codec ID : XVID
Codec ID/Hint : XviD
Duration : 1h 39mn
Bit rate : 1 900 Kbps
Width : 720 pixels
Height : 304 pixels
Display aspect ratio : 2.35:1
Frame rate : 23.976 fps
Color space : YUV
Chroma subsampling : 4:2:0
Bit depth : 8 bits
Scan type : Progressive
Compression mode : Lossy
Bits/(Pixel*Frame) : 0.362
Stream size : 1.31 GiB (90%)
Writing library : XviD 1.2.1 (UTC 2008-12-04)
Audio
ID : 1
Format : AC-3
Format/Info : Audio Coding 3
Mode extension : CM (complete main)
Format settings, Endianness : Big
Codec ID : 2000
Duration : 1h 39mn
Bit rate mode : Constant
Bit rate : 192 Kbps
Channel(s) : 2 channels
Channel positions : Front: L R
Sampling rate : 48.0 KHz
Compression mode : Lossy
Stream size : 136 MiB (9%)
Alignment : Split accross interleaves
Interleave, duration : 42 ms (1.00 video frame)
Interleave, preload duratio : 500 ms

Скриншот c названием фильма

Скриншоты

To download the content you need:
1. Download and install torrent client [for Windows] or for mobile system
2. Click on [Download]
Attention.
If the test YOU are NOT a ROBOT - does not work, then You are using an outdated browser.
Install the current browser and click on [Download]
Security: torrent client is allowed by Kaspersky.

[en.asmlocator.ru].t3746.torrent 
Torrent: Registered [ 2015-11-30 05:45 ] · 228A39D6D067F328638F7F16A93D75FDF842818A

Download .torrent

Download

15 KB

Status: checked
Completed: 0 times
Size: 1.45 GB
terms.php
[Profile] [PM]
Display posts:    
Reply to topic

Current time is: 10-Dec 08:32

All times are UTC ± 0



You cannot post new topics in this forum
You cannot reply to topics in this forum
You cannot edit your posts in this forum
You cannot delete your posts in this forum
You cannot vote in polls in this forum
You cannot attach files in this forum
You can download files in this forum
Верим фактам, а не вранью Путина! Факт, что Правительство ведёт Россию к истреблению.
Так как численность населения падает, даже не смотря на приток эмигрантов!
Русская нация вымирает и вырождается, смешиваясь с эмигрантами!
Факт, что военных и граждан предприятий заставляют голосовать за партию Единая Россия и Путина
ПОД СТРАХОМ УВОЛЬНЕНИЯ!
Нам не нужно Правительство, блокирующее личную жизнь, интернет, нарушающее сохранность данных.
Все эти действия финансируются за счёт народа!