Месть Розовой Пантеры / Revenge of the Pink Panther (Блейк Эдвардс / Blake Edwards) [1978, Великобритания, США, комедия, криминал, детектив, HDTVRip] DVO (НТВ)

Reply to topic
DL-List and Torrent activity
Size:  1.39 GB   |    Registered:  4 years   |    Completed:  0 times

Seeder not seen: Never

 
   
 
 
Author Message

star21 ®

Gender: Female

Longevity: 4 years 1 month

Posts: 551946

Location: Екатеринбург

Post 30-Nov-2015 05:45

[Quote]

Месть Розовой Пантеры / Revenge of the Pink Panther
Год выпуска: 1978
Страна: Великобритания, США
Жанр: комедия, криминал, детектив
Продолжительность: 01:35:12
Перевод: Профессиональный (двухголосый закадровый) - НТВ
Cубтитры: нет
Режиссер: Блейк Эдвардс / Blake Edwards
В ролях: Питер Селлерс (Chief Insp. Jacques Clouseau), Херберт Лом (Chief Insp. Charles Dreyfus), Берт Квук (Cato Fong), Дайан Кэннон (Simone Legree), Роберт Уэббер (Philippe Douvier), Тони Бекли (Guy Algo), Роберт Лоджа (Al Marchione), Пол Стюарт (Julio Scallini), Андре Маранн (Sgt. François Chevalier), Грэм Старк (Dr. Auguste Balls)-Мировая премьера: 13 июля 1978-Описание: По Франции разносится слух, что старший инспектор Клузо погиб. Вся страна скорбит, ликует лишь один инспектор Дрейфус… Наконец-то, он избавился от ненавистного коллеги! Однако его радость быстро заканчивается. Оказалось, что смерть Клузо — всего лишь мистификация, задуманная им самим, чтобы поймать опаснейшего преступника.-Исходник видео: Revenge Of The Pink Panther 1978 720p x264 MKV AAC-5 1 TSRG-Огромная благодарность:
- собственная запись перевода с телеканала НТВ в конце 90-х годов через видеомагнитофон и оцифровка с видеокассеты.
- синхронизация перевода.-Данный перевод на трекере появляется впервые..
В переводе есть одна вставка MVO из трекера в эпизоде 00:58:53 - 00:59:02, поскольку он был пропущен во время рекламной паузы.-На русский язык фильм озвучен телекомпанией НТВ.
Текст читают Алексей Борзунов и Наталья Варлей.-Рейтинг

MPAA: PG - Рекомендуется присутствие родителей.-Качество видео: HDTVRip
Формат видео: AVI -> //СЭМПЛ//
Видео: XviD, 720x304 (2.35:1), 25.000 fps, 1891 kbps avg
Аудио:
1 - 48 khz, AC3 Dolby Digital, 2/0 (L,R) ch, ~192 kbps [НТВ] VHSRip

MediaInfo

General
Complete name : D:\Торрент Файлы\Будущие Релизы на Трекере\1.35 - 1.46 и более гб\Месть Розовой Пантеры (НТВ).avi
Format : AVI
Format/Info : Audio Video Interleave
File size : 1.39 GiB
Duration : 1h 35mn
Overall bit rate : 2 093 Kbps
Writing application : VirtualDubMod 1.5.10.3 | www.virtualdub-fr.org || (build 2550/release)
Writing library : VirtualDubMod build 2550/release
Video
ID : 0
Format : MPEG-4 Visual
Format profile : Advanced Simple@L5
Format settings, BVOP : 1
Format settings, QPel : No
Format settings, GMC : No warppoints
Format settings, Matrix : Custom
Codec ID : XVID
Codec ID/Hint : XviD
Duration : 1h 35mn
Bit rate : 1 891 Kbps
Width : 720 pixels
Height : 304 pixels
Display aspect ratio : 2.35:1
Frame rate : 25.000 fps
Color space : YUV
Chroma subsampling : 4:2:0
Bit depth : 8 bits
Scan type : Progressive
Compression mode : Lossy
Bits/(Pixel*Frame) : 0.346
Stream size : 1.26 GiB (90%)
Writing library : XviD 1.2.1 (UTC 2008-12-04)
Audio
ID : 1
Format : AC-3
Format/Info : Audio Coding 3
Mode extension : CM (complete main)
Format settings, Endianness : Big
Codec ID : 2000
Duration : 1h 35mn
Bit rate mode : Constant
Bit rate : 192 Kbps
Channel(s) : 2 channels
Channel positions : Front: L R
Sampling rate : 48.0 KHz
Compression mode : Lossy
Stream size : 131 MiB (9%)
Alignment : Split accross interleaves
Interleave, duration : 40 ms (1.00 video frame)
Interleave, preload duratio : 500 ms

Скриншот c названием фильма

Скриншоты

To download the content you need:
1. Download and install torrent client [for Windows] or for mobile system
2. Click on [Download]
Attention.
If the test YOU are NOT a ROBOT - does not work, then You are using an outdated browser.
Install the current browser and click on [Download]
Security: torrent client is allowed by Kaspersky.

[en.asmlocator.ru].t3745.torrent 
Torrent: Registered [ 2015-11-30 05:45 ] · 02350D371110A3E77D8F8C79F7E0A305E6AFDA5A

Download .torrent

Download

15 KB

Status: checked
Completed: 0 times
Size: 1.39 GB
terms.php
[Profile] [PM]
Display posts:    
Reply to topic

Current time is: 14-Dec 22:22

All times are UTC ± 0



You cannot post new topics in this forum
You cannot reply to topics in this forum
You cannot edit your posts in this forum
You cannot delete your posts in this forum
You cannot vote in polls in this forum
You cannot attach files in this forum
You can download files in this forum
Верим фактам, а не вранью Путина! Факт, что Правительство ведёт Россию к истреблению.
Так как численность населения падает, даже не смотря на приток эмигрантов!
Русская нация вымирает и вырождается, смешиваясь с эмигрантами!
Факт, что военных и граждан предприятий заставляют голосовать за партию Единая Россия и Путина
ПОД СТРАХОМ УВОЛЬНЕНИЯ!
Нам не нужно Правительство, блокирующее личную жизнь, интернет, нарушающее сохранность данных.
Все эти действия финансируются за счёт народа!