Триумфальная арка / Arch of Triumph (Льюис Майлстоун / Lewis Milestone) [1948, США, драма, мелодрама, военный, HDRip] MVO (Film Prestige) + Sub Rus, Eng + Original Eng

Reply to topic
DL-List and Torrent activity
Size:  1.64 GB   |    Registered:  4 years   |    Completed:  0 times

Seeder not seen: Never

 
   
 
 
Author Message

star21 ®

Gender: Female

Longevity: 4 years 1 month

Posts: 551946

Location: Екатеринбург

Post 30-Nov-2015 05:45

[Quote]

Триумфальная арка / Arch of Triumph

Страна: США
Жанр: драма, мелодрама, военный
Год выпуска: 1948
Продолжительность: 02:13:02
Перевод: Профессиональный (многоголосый закадровый) - Film Prestige
Cубтитры: русские, английские
Оригинальная аудиодорожка: английский

Режиссер: Льюис Майлстоун / Lewis Milestone
В ролях: Ингрид Бергман, Шарль Буайе, Чарльз Лотон, Луис Калхерн, Рут Уоррик, Роман Бонен, Дж. Эдвард Бромберг, Рут Нельсон, Стивен Бекасси, Курт Буа, Арт Смит, Майкл Романофф
Описание: Врач Равик, бежавший от нацистов из Германии и нашедший временное пристанище в Париже, ведет сумеречную жизнь человека без дома, семьи и будущего. Работа, рюмка, случайные связи… Неожиданная встреча с Джоан преображает его и дает смысл жизни. Две потерянные души пытаются наладить личное счастье наперекор судьбе…
Качество видео:
Формат видео: AVI
Видео: 640x464 (1.38:1), 23.976 fps, XviD build 73 ~1365 kbps avg, 0.19 bit/pixel
Аудио: 48 kHz, AC3 Dolby Digital, 2/0 (L,R) ch, ~192 kbps - многоголосый
Аудио: 48 kHz, AC3 Dolby Digital, 2/0 (L,R) ch, ~192 kbps - оригинал (отдельным файлом)

MediaInfo

Общее
Полное имя : H:\Arch.of.Triumph.1948.hdrip_[1.46]_[teko]\Arch.of.Triumph.1948.hdrip_[1.46].avi
Формат : AVI
Формат/Информация : Audio Video Interleave
Размер файла : 1,46 Гбайт
Продолжительность : 2 ч. 13 м.
Общий поток : 1567 Кбит/сек
Программа кодирования : VirtualDubMod 1.5.10.3 | www.virtualdub-fr.org || (build 2550/release)
Библиотека кодирования : VirtualDubMod build 2550/release
Видео
Идентификатор : 0
Формат : MPEG-4 Visual
Профиль формата : Advanced Simple@L5
Параметр BVOP формата : 1
Параметр QPel формата : Нет
Параметр GMC формата : Без точки перехода
Параметр матрицы формата : Выборочная
Идентификатор кодека : XVID
Идентификатор кодека/Подсказка : XviD
Продолжительность : 2 ч. 13 м.
Битрейт : 1366 Кбит/сек
Ширина : 640 пикселей
Высота : 464 пикселя
Соотношение сторон : 1,379
Частота кадров : 23,976 кадра/сек
Цветовое пространство : YUV
Субдискретизация насыщенности : 4:2:0
Битовая глубина : 8 бит
Тип развёртки : Прогрессивная
Метод сжатия : С потерями
Бит/(Пиксели*Кадры) : 0.192
Размер потока : 1,27 Гбайт (87%)
Библиотека кодирования : XviD 73
Аудио
Идентификатор : 1
Формат : AC-3
Формат/Информация : Audio Coding 3
Расширение режима : CM (complete main)
Параметр Endianness формата : Big
Идентификатор кодека : 2000
Продолжительность : 2 ч. 13 м.
Вид битрейта : Постоянный
Битрейт : 192 Кбит/сек
Каналы : 2 канала
Расположение каналов : Front: L R
Частота : 48,0 КГц
Битовая глубина : 16 бит
Метод сжатия : С потерями
Размер потока : 183 Мбайт (12%)
Выравнивание : Разделение по промежуткам
Продолжительность промежутка : 42 мс. (1,00 видеокадр)
Время предзагрузки промежутка : 500 мс.
Релиз группы:
-
-

To download the content you need:
1. Download and install torrent client [for Windows] or for mobile system
2. Click on [Download]
Attention.
If the test YOU are NOT a ROBOT - does not work, then You are using an outdated browser.
Install the current browser and click on [Download]
Security: torrent client is allowed by Kaspersky.

[en.asmlocator.ru].t3744.torrent 
Torrent: Registered [ 2015-11-30 05:45 ] · D47749676E06A1123D0FEE7912E6F79B11B26DC1

Download .torrent

Download

17 KB

Status: checked
Completed: 0 times
Size: 1.64 GB
terms.php
[Profile] [PM]
Display posts:    
Reply to topic

Current time is: 12-Dec 18:22

All times are UTC ± 0



You cannot post new topics in this forum
You cannot reply to topics in this forum
You cannot edit your posts in this forum
You cannot delete your posts in this forum
You cannot vote in polls in this forum
You cannot attach files in this forum
You can download files in this forum
Верим фактам, а не вранью Путина! Факт, что Правительство ведёт Россию к истреблению.
Так как численность населения падает, даже не смотря на приток эмигрантов!
Русская нация вымирает и вырождается, смешиваясь с эмигрантами!
Факт, что военных и граждан предприятий заставляют голосовать за партию Единая Россия и Путина
ПОД СТРАХОМ УВОЛЬНЕНИЯ!
Нам не нужно Правительство, блокирующее личную жизнь, интернет, нарушающее сохранность данных.
Все эти действия финансируются за счёт народа!