Сатана встречает леди / Satan Met a Lady (Уильям Дитерле / William Dieterle) [1936, США, детектив, комедия, DVDRip] VO (Светла) + Original Eng

Reply to topic
DL-List and Torrent activity
Size:  1.44 GB   |    Registered:  4 years   |    Completed:  0 times

Seeder not seen: Never

 
   
 
 
Author Message

star21 ®

Gender: Female

Longevity: 4 years 1 month

Posts: 551946

Location: Екатеринбург

Post 30-Nov-2015 05:45

[Quote]

Сатана встречает леди / Satan Met a Lady
Страна: США
Жанр: детектив, комедия
Год выпуска: 1936
Продолжительность: 01:14:16
Перевод: Профессиональный (одноголосый закадровый) - Светла
Cубтитры: нет
Оригинальная аудиодорожка: английский

Режиссер: Уильям Дитерле / William Dieterle
В ролях: Бетт Дэвис, Уоррен Уильям, Элисон Скипуорт, Артур Тричер, Мари Уилсон, Уини Шоу, Портер Холл, Олин Ховлин, Чарльз С. Уилсон, Джон Александр, Жозеф Аллен, Мэй Битти, Барбара Блейн, Билли Блэтчер, Рэймонд Браун, Джеймс П. Бёртис, Фрэнк Дариен, Уильям Б. Дэвидсон, Джон Эллиотт, Сол Горсс
Описание: Частный детектив Тед Шейн возвращается к работе со своим бывшим партнером Эймсом, который не особенно рад этому, поскольку его жена Астрид явно не равнодушна к Теду. Но с приходом Теда появляется и работа. К ним приходит посетительница Валери, которая за хорошее вознаграждение просит найти ее, якобы сбежавшего, жениха по имени Фэрроу. Тед не верит в ее россказни, но деньги уплачены и он отдает дело партнеру.
На следующее утро и Эймса и Фэрроу находят мертвыми, а Шейна полиция подозревает в обоих убийствах. В отеле Валери Шейн требует от нее рассказа истинной истории, а она сначала угрожает пистолетом, а затем предлагает партнерство. Все еще больше запутывается, когда Шейн обнаруживает, что в его доме кто-то побывал и перевернул все вверх дном…

Качество видео:
Формат видео: AVI
Видео: 640x480 (1.33:1), 23.976 fps, XviD build 73 ~2367 kbps avg, 0.32 bit/pixel
Аудио: 48 kHz, AC3 Dolby Digital, 2/0 (L,R) ch, ~192 kbps - одноголосый
Аудио: 48 kHz, AC3 Dolby Digital, 2/0 (L,R) ch, ~192 kbps - оригинал

MediaInfo

Общее
Полное имя : H:\Satan.Met.a.Lady.1936.dvdrip_[1.45]_[teko].avi
Формат : AVI
Формат/Информация : Audio Video Interleave
Размер файла : 1,44 Гбайт
Продолжительность : 1 ч. 14 м.
Общий поток : 2766 Кбит/сек
Программа кодирования : VirtualDubMod 1.5.10.3 | www.virtualdub-fr.org || (build 2550/release)
Библиотека кодирования : VirtualDubMod build 2550/release
Видео
Идентификатор : 0
Формат : MPEG-4 Visual
Профиль формата : Advanced Simple@L5
Параметр BVOP формата : 1
Параметр QPel формата : Нет
Параметр GMC формата : Без точки перехода
Параметр матрицы формата : Выборочная
Идентификатор кодека : XVID
Идентификатор кодека/Подсказка : XviD
Продолжительность : 1 ч. 14 м.
Битрейт : 2368 Кбит/сек
Ширина : 640 пикселей
Высота : 480 пикселей
Соотношение сторон : 4:3
Частота кадров : 23,976 кадра/сек
Цветовое пространство : YUV
Субдискретизация насыщенности : 4:2:0
Битовая глубина : 8 бит
Тип развёртки : Прогрессивная
Метод сжатия : С потерями
Бит/(Пиксели*Кадры) : 0.322
Размер потока : 1,23 Гбайт (86%)
Библиотека кодирования : XviD 73
Аудио #1
Идентификатор : 1
Формат : AC-3
Формат/Информация : Audio Coding 3
Расширение режима : CM (complete main)
Параметр Endianness формата : Big
Идентификатор кодека : 2000
Продолжительность : 1 ч. 14 м.
Вид битрейта : Постоянный
Битрейт : 192 Кбит/сек
Каналы : 2 канала
Расположение каналов : Front: L R
Частота : 48,0 КГц
Битовая глубина : 16 бит
Метод сжатия : С потерями
Размер потока : 102 Мбайт (7%)
Выравнивание : Разделение по промежуткам
Продолжительность промежутка : 42 мс. (1,00 видеокадр)
Время предзагрузки промежутка : 500 мс.
Аудио #2
Идентификатор : 2
Формат : AC-3
Формат/Информация : Audio Coding 3
Расширение режима : CM (complete main)
Параметр Endianness формата : Big
Идентификатор кодека : 2000
Продолжительность : 1 ч. 14 м.
Вид битрейта : Постоянный
Битрейт : 192 Кбит/сек
Каналы : 2 канала
Расположение каналов : Front: L R
Частота : 48,0 КГц
Битовая глубина : 16 бит
Метод сжатия : С потерями
Размер потока : 102 Мбайт (7%)
Выравнивание : Разделение по промежуткам
Продолжительность промежутка : 42 мс. (1,00 видеокадр)
Время предзагрузки промежутка : 500 мс.
Релиз группы:
-
-

To download the content you need:
1. Download and install torrent client [for Windows] or for mobile system
2. Click on [Download]
Attention.
If the test YOU are NOT a ROBOT - does not work, then You are using an outdated browser.
Install the current browser and click on [Download]
Security: torrent client is allowed by Kaspersky.

[en.asmlocator.ru].t3743.torrent 
Torrent: Registered [ 2015-11-30 05:45 ] · 11A2EC540F713063ABB7F5EC011E65251E627218

Download .torrent

Download

15 KB

Status: checked
Completed: 0 times
Size: 1.44 GB
terms.php
[Profile] [PM]
Display posts:    
Reply to topic

Current time is: 14-Dec 21:09

All times are UTC ± 0



You cannot post new topics in this forum
You cannot reply to topics in this forum
You cannot edit your posts in this forum
You cannot delete your posts in this forum
You cannot vote in polls in this forum
You cannot attach files in this forum
You can download files in this forum
Верим фактам, а не вранью Путина! Факт, что Правительство ведёт Россию к истреблению.
Так как численность населения падает, даже не смотря на приток эмигрантов!
Русская нация вымирает и вырождается, смешиваясь с эмигрантами!
Факт, что военных и граждан предприятий заставляют голосовать за партию Единая Россия и Путина
ПОД СТРАХОМ УВОЛЬНЕНИЯ!
Нам не нужно Правительство, блокирующее личную жизнь, интернет, нарушающее сохранность данных.
Все эти действия финансируются за счёт народа!