Брат доктора Гомера / Brat doktora Homera (Жика Митрович / Žika Mitrović) [1968, Югославия, драма, военный, DVDRip] Sub Rus

Reply to topic
DL-List and Torrent activity
Size:  1.45 GB   |    Registered:  4 years   |    Completed:  0 times

Seeder not seen: Never

 
   
 
 
Author Message

star21 ®

Gender: Female

Longevity: 4 years 1 month

Posts: 551946

Location: Екатеринбург

Post 30-Nov-2015 05:45

[Quote]

Брат доктора Гомера / Brat doktora Homera
Страна: Югославия
Жанр: драма, военный
Год выпуска: 1968
Продолжительность: 01:26:54
Перевод: Субтитры - Твид
Cубтитры: русские
Оригинальная аудиодорожка: сербо-хорватский

Режиссер: Живорад "Жика" Митрович / Živorad "Žika" Mitrović
В ролях: Велимир "Бата" Живойинович, Воя Мирич, Йован Миличевич, Любомир "Люба" Тадич, Павле Вуйисич, Елена Йованович, Здравка Крстулович, Петре Прличко, Стоян (Столе) Аранджелович, Абдурахман Шаля, Янез Врховец, Дарко Дамевский, Фарук Беголи, Панче Васовский, Драги Костовский, Златибор (Златко) Стоимиров, Милан Босильчич, Вукан Диневский
Описание: Косово, сентябрь 1945 года. После четырех лет, проведенных в немецком плену, в свой родной городок возвращается Симон Петрович. Он в прекрасном настроении и предвкушает радостную встречу с родителями и невестой. Но его ждет тяжелый удар. Отец убит. Мать умерла. А невеста ушла к его же брату. В отличие от своего брата, Симон начинает собственное расследование смерти отца и считает, что убийцы находятся еще на свободе. Население Косово помогает Симону добиваться возмездия. Симон одержим одним желанием - найти убийцу отца ...
Качество видео:
Формат видео: AVI
Видео: 624x480 (1.30:1), 25 fps, XviD build 73 ~2192 kbps avg, 0.29 bit/pixel
Аудио: 48 kHz, AC3 Dolby Digital, 2/0 (L,R) ch, ~192 kbps

Фрагмент субтитров

626
00:53:57,360 --> 00:53:59,385
Дай ему пистолет. Стреляет тот,
у кого оружие в руках.
627
00:53:59,400 --> 00:54:01,300
Он может и в нас...
- Дай ему пистолет!
628
00:54:01,440 --> 00:54:02,998
Твое право.
629
00:54:04,800 --> 00:54:06,791
Как бы тебе потом
не пожалеть, старик.
630
00:55:15,320 --> 00:55:16,833
Молодец! Отличный выстрел.
631
00:55:23,160 --> 00:55:25,151
Что тут такое? Кто стрелял?
- Ничепо. Все в порядке.
632
00:55:25,320 --> 00:55:26,526
Давай сюда!
633
00:56:43,800 --> 00:56:45,734
Здравствуй.
- Здравствуйте, товарищ майор.
634
00:56:45,880 --> 00:56:47,324
Ты получил приказ выступать?
635
00:56:47,360 --> 00:56:49,351
Да, но только сегодня после полудня.
636
00:56:49,560 --> 00:56:50,504
И?
637
00:56:50,560 --> 00:56:52,539
У меня не было времени
собрать своих людей.

MediaInfo

Общее
Полное имя : H:\Brat.doktora.Homera.1968.dvdrip_[1.46]_[teko]\Brat.doktora.Homera.1968.dvdrip_[1.46].avi
Формат : AVI
Формат/Информация : Audio Video Interleave
Размер файла : 1,45 Гбайт
Продолжительность : 1 ч. 26 м.
Общий поток : 2395 Кбит/сек
Программа кодирования : VirtualDubMod 1.5.10.3 | www.virtualdub-fr.org || (build 2550/release)
Библиотека кодирования : VirtualDubMod build 2550/release
Видео
Идентификатор : 0
Формат : MPEG-4 Visual
Профиль формата : Advanced Simple@L5
Параметр BVOP формата : 1
Параметр QPel формата : Нет
Параметр GMC формата : Без точки перехода
Параметр матрицы формата : Выборочная
Идентификатор кодека : XVID
Идентификатор кодека/Подсказка : XviD
Продолжительность : 1 ч. 26 м.
Битрейт : 2193 Кбит/сек
Ширина : 624 пикселя
Высота : 480 пикселей
Соотношение сторон : 4:3
Частота кадров : 25,000 кадров/сек
Цветовое пространство : YUV
Субдискретизация насыщенности : 4:2:0
Битовая глубина : 8 бит
Тип развёртки : Прогрессивная
Метод сжатия : С потерями
Бит/(Пиксели*Кадры) : 0.293
Размер потока : 1,33 Гбайт (92%)
Библиотека кодирования : XviD 73
Аудио
Идентификатор : 1
Формат : AC-3
Формат/Информация : Audio Coding 3
Расширение режима : CM (complete main)
Параметр Endianness формата : Big
Идентификатор кодека : 2000
Продолжительность : 1 ч. 26 м.
Вид битрейта : Постоянный
Битрейт : 192 Кбит/сек
Каналы : 2 канала
Расположение каналов : Front: L R
Частота : 48,0 КГц
Битовая глубина : 16 бит
Метод сжатия : С потерями
Размер потока : 119 Мбайт (8%)
Выравнивание : Разделение по промежуткам
Продолжительность промежутка : 40 мс. (1,00 видеокадр)
Время предзагрузки промежутка : 500 мс.
Релиз группы:
-
-

To download the content you need:
1. Download and install torrent client [for Windows] or for mobile system
2. Click on [Download]
Attention.
If the test YOU are NOT a ROBOT - does not work, then You are using an outdated browser.
Install the current browser and click on [Download]
Security: torrent client is allowed by Kaspersky.

[en.asmlocator.ru].t3740.torrent 
Torrent: Registered [ 2015-11-30 05:45 ] · 0629CE9B06ED341DFF9B8F9579DC9E646B229DB7

Download .torrent

Download

15 KB

Status: checked
Completed: 0 times
Size: 1.45 GB
terms.php
[Profile] [PM]
Display posts:    
Reply to topic

Current time is: 12-Dec 02:41

All times are UTC ± 0



You cannot post new topics in this forum
You cannot reply to topics in this forum
You cannot edit your posts in this forum
You cannot delete your posts in this forum
You cannot vote in polls in this forum
You cannot attach files in this forum
You can download files in this forum
Верим фактам, а не вранью Путина! Факт, что Правительство ведёт Россию к истреблению.
Так как численность населения падает, даже не смотря на приток эмигрантов!
Русская нация вымирает и вырождается, смешиваясь с эмигрантами!
Факт, что военных и граждан предприятий заставляют голосовать за партию Единая Россия и Путина
ПОД СТРАХОМ УВОЛЬНЕНИЯ!
Нам не нужно Правительство, блокирующее личную жизнь, интернет, нарушающее сохранность данных.
Все эти действия финансируются за счёт народа!