Бандолеро! / Bandolero! (Эндрю В. МакЛаглен / Andrew V. McLaglen) [1968, США, боевик, криминал, вестерн, HDRip] MVO (DVD Магия) + MVO (SomeWax) + MVO (Рен ТВ) + Sub Rus, Eng + Original Eng

Reply to topic
DL-List and Torrent activity
Size:  1.88 GB   |    Registered:  4 years   |    Completed:  0 times

Seeder not seen: Never

 
   
 
 
Author Message

star21 ®

Gender: Female

Longevity: 4 years 1 month

Posts: 551946

Location: Екатеринбург

Post 30-Nov-2015 05:45

[Quote]

Бандолеро! / Bandolero!
Страна: США
Жанр: боевик, криминал, вестерн
Год выпуска: 1968
Продолжительность: 01:46:40
Перевод: Профессиональный (многоголосый закадровый) - DVD Магия
Перевод: Профессиональный (многоголосый закадровый) - SomeWax
Перевод: Профессиональный (многоголосый закадровый) - Рен ТВ
Cубтитры: русские, английские
Оригинальная аудиодорожка: английский

Режиссер: Эндрю В. МакЛаглен / Andrew V. McLaglen
В ролях: Джеймс Стюарт, Дин Мартин, Рэкел Уэлч, Джордж Кеннеди, Эндрю Прайн, Уилл Гир, Клинт Ричи, Денвер Пайл, Том Хитон, Руди Диас
Описание: Дерзких контрабандистов и отважных бандолеро, мексиканские простолюдины считают лицами поэтическими. Ди - крепкий парень вне закона. Он со своим приятелем решает ограбить банк в маленьком техасском городке. Во время налета в перестрелке один из них убивает богатого владельца местного ранчо. Полиция арестовывает грабителей и приговаривает их к смертной казни через повешение. Узнав о случившимся брат Ди, с намерением освободить «бригаду», прибывает в город под видом палача. При побеге они берут в заложники девушку по имени Мария. Шериф этого городка Джонсон клянется во чтобы-то ни стало поймать преступников и бросается в погоню. Но мексиканское солнце улыбается не всем. Когда до границы остается буквально полмили, путь беглецам преграждает шайка жестоких мексиканских бандолеро...
Качество видео: HDRip [Бандолеро.1968.BDRip.1080p]
Формат видео: AVI
Видео: 720x304 (2.37:1), 23.976 fps, XviD build 73 ~1754 kbps avg, 0.33 bit/pixel
Аудио: 48 kHz, AC3 Dolby Digital, 2/0 (L,R) ch, ~192 kbps - DVD Магия
отдельными файлами:
Аудио: 48 kHz, AC3 Dolby Digital, 2/0 (L,R) ch, ~192 kbps - SomeWax
Аудио: 48 kHz, AC3 Dolby Digital, 2/0 (L,R) ch, ~192 kbps - Рен ТВ
Аудио: 48 kHz, AC3 Dolby Digital, 2/0 (L,R) ch, ~192 kbps - оригинал

MediaInfo

Общее
Полное имя : H:\Bandolero!.1968.hdrip_[1.46]_[teko]\Bandolero!.1968.hdrip_[1.46].avi
Формат : AVI
Формат/Информация : Audio Video Interleave
Размер файла : 1,45 Гбайт
Продолжительность : 1 ч. 46 м.
Общий поток : 1956 Кбит/сек
Программа кодирования : VirtualDubMod 1.5.10.3 | www.virtualdub-fr.org || (build 2550/release)
Библиотека кодирования : VirtualDubMod build 2550/release
Видео
Идентификатор : 0
Формат : MPEG-4 Visual
Профиль формата : Advanced Simple@L5
Параметр BVOP формата : 1
Параметр QPel формата : Нет
Параметр GMC формата : Без точки перехода
Параметр матрицы формата : Выборочная
Идентификатор кодека : XVID
Идентификатор кодека/Подсказка : XviD
Продолжительность : 1 ч. 46 м.
Битрейт : 1754 Кбит/сек
Ширина : 720 пикселей
Высота : 304 пикселя
Соотношение сторон : 2,35:1
Частота кадров : 23,976 кадра/сек
Цветовое пространство : YUV
Субдискретизация насыщенности : 4:2:0
Битовая глубина : 8 бит
Тип развёртки : Прогрессивная
Метод сжатия : С потерями
Бит/(Пиксели*Кадры) : 0.334
Размер потока : 1,30 Гбайт (90%)
Библиотека кодирования : XviD 73
Аудио
Идентификатор : 1
Формат : AC-3
Формат/Информация : Audio Coding 3
Расширение режима : CM (complete main)
Параметр Endianness формата : Big
Идентификатор кодека : 2000
Продолжительность : 1 ч. 46 м.
Вид битрейта : Постоянный
Битрейт : 192 Кбит/сек
Каналы : 2 канала
Расположение каналов : Front: L R
Частота : 48,0 КГц
Битовая глубина : 16 бит
Метод сжатия : С потерями
Размер потока : 146 Мбайт (10%)
Выравнивание : Разделение по промежуткам
Продолжительность промежутка : 42 мс. (1,00 видеокадр)
Время предзагрузки промежутка : 500 мс.
Релиз группы:
-
-

To download the content you need:
1. Download and install torrent client [for Windows] or for mobile system
2. Click on [Download]
Attention.
If the test YOU are NOT a ROBOT - does not work, then You are using an outdated browser.
Install the current browser and click on [Download]
Security: torrent client is allowed by Kaspersky.

[en.asmlocator.ru].t3738.torrent 
Torrent: Registered [ 2015-11-30 05:45 ] · 886EF4A13315660517C867C7A05E3B7A8F52266A

Download .torrent

Download

20 KB

Status: checked
Completed: 0 times
Size: 1.88 GB
terms.php
[Profile] [PM]
Display posts:    
Reply to topic

Current time is: 12-Dec 18:43

All times are UTC ± 0



You cannot post new topics in this forum
You cannot reply to topics in this forum
You cannot edit your posts in this forum
You cannot delete your posts in this forum
You cannot vote in polls in this forum
You cannot attach files in this forum
You can download files in this forum
Верим фактам, а не вранью Путина! Факт, что Правительство ведёт Россию к истреблению.
Так как численность населения падает, даже не смотря на приток эмигрантов!
Русская нация вымирает и вырождается, смешиваясь с эмигрантами!
Факт, что военных и граждан предприятий заставляют голосовать за партию Единая Россия и Путина
ПОД СТРАХОМ УВОЛЬНЕНИЯ!
Нам не нужно Правительство, блокирующее личную жизнь, интернет, нарушающее сохранность данных.
Все эти действия финансируются за счёт народа!