Последний из Могикан / The Last of the Mohicans (Джордж Б. Сайтц / George B. Seitz) [1936, США, приключения, вестерн, военный, история, DVDRip] VO (Светла)

Reply to topic
DL-List and Torrent activity
Size:  1.45 GB   |    Registered:  4 years   |    Completed:  0 times

Seeder not seen: Never

 
   
 
 
Author Message

star21 ®

Gender: Female

Longevity: 4 years 1 month

Posts: 551946

Location: Екатеринбург

Post 30-Nov-2015 05:45

[Quote]

Последний из Могикан / The Last of the Mohicans
Страна: США
Жанр: приключения, вестерн, военный, история
Год выпуска: 1936
Продолжительность: 01:31:40
Перевод: Профессиональный (одноголосый закадровый) - Светла
Cубтитры: нет

Режиссер: Джордж Б. Сайтц / George B. Seitz
В ролях: Рэндольф Скотт, Бинни Барнс, Генри Уилкоксон, Брюс Кэбот, Хэзер Эйнджел, Филип Рид, Роберт Бэррат, Хью Баклер, Уиллард Робертсон, Уильям Стэк
Описание: 1757 год. Англо-французская война за американские колонии в самом разгаре. Дочери полковника Манро пытаются пробраться в осажденный французами английский форт. На одну из сестер положил глаз индеец Магуа, который пошел с ними проводником, а сам решил заманить их в ловушку.
Им на помощь приходит молодой белый охотник Соколиный Глаз и его верные друзья — индейцы Чингачгук и его сын Уинкас, которые являются последними представителями племени могикан, чей народ был уничтожен. Они приводят сестер в форт, окруженный французскими войсками и их союзниками индейцами-гуронами…

Качество видео:
Формат видео: AVI
Видео: 640x480 (1.33:1), 23.976 fps, XviD build 73 ~2067 kbps avg, 0.28 bit/pixel
Аудио: 48 kHz, AC3 Dolby Digital, 2/0 (L,R) ch, ~192 kbps

MediaInfo

Общее
Полное имя : H:\The.Last.of.the.Mohicans.1936.dvdrip_[1.46]_[teko].avi
Формат : AVI
Формат/Информация : Audio Video Interleave
Размер файла : 1,45 Гбайт
Продолжительность : 1 ч. 31 м.
Общий поток : 2269 Кбит/сек
Программа кодирования : VirtualDubMod 1.5.10.3 | www.virtualdub-fr.org || (build 2550/release)
Библиотека кодирования : VirtualDubMod build 2550/release
Видео
Идентификатор : 0
Формат : MPEG-4 Visual
Профиль формата : Advanced Simple@L5
Параметр BVOP формата : 1
Параметр QPel формата : Нет
Параметр GMC формата : Без точки перехода
Параметр матрицы формата : Выборочная
Идентификатор кодека : XVID
Идентификатор кодека/Подсказка : XviD
Продолжительность : 1 ч. 31 м.
Битрейт : 2067 Кбит/сек
Ширина : 640 пикселей
Высота : 480 пикселей
Соотношение сторон : 4:3
Частота кадров : 23,976 кадра/сек
Цветовое пространство : YUV
Субдискретизация насыщенности : 4:2:0
Битовая глубина : 8 бит
Тип развёртки : Прогрессивная
Метод сжатия : С потерями
Бит/(Пиксели*Кадры) : 0.281
Размер потока : 1,32 Гбайт (91%)
Библиотека кодирования : XviD 73
Аудио
Идентификатор : 1
Формат : AC-3
Формат/Информация : Audio Coding 3
Расширение режима : CM (complete main)
Параметр Endianness формата : Big
Идентификатор кодека : 2000
Продолжительность : 1 ч. 31 м.
Вид битрейта : Постоянный
Битрейт : 192 Кбит/сек
Каналы : 2 канала
Расположение каналов : Front: L R
Частота : 48,0 КГц
Битовая глубина : 16 бит
Метод сжатия : С потерями
Размер потока : 126 Мбайт (8%)
Выравнивание : Разделение по промежуткам
Продолжительность промежутка : 42 мс. (1,00 видеокадр)
Время предзагрузки промежутка : 500 мс.
Релиз группы:
-
-

To download the content you need:
1. Download and install torrent client [for Windows] or for mobile system
2. Click on [Download]
Attention.
If the test YOU are NOT a ROBOT - does not work, then You are using an outdated browser.
Install the current browser and click on [Download]
Security: torrent client is allowed by Kaspersky.

[en.asmlocator.ru].t3737.torrent 
Torrent: Registered [ 2015-11-30 05:45 ] · E54599655C3D972A8607D75E07123EF808985532

Download .torrent

Download

15 KB

Status: checked
Completed: 0 times
Size: 1.45 GB
terms.php
[Profile] [PM]
Display posts:    
Reply to topic

Current time is: 14-Dec 21:29

All times are UTC ± 0



You cannot post new topics in this forum
You cannot reply to topics in this forum
You cannot edit your posts in this forum
You cannot delete your posts in this forum
You cannot vote in polls in this forum
You cannot attach files in this forum
You can download files in this forum
Верим фактам, а не вранью Путина! Факт, что Правительство ведёт Россию к истреблению.
Так как численность населения падает, даже не смотря на приток эмигрантов!
Русская нация вымирает и вырождается, смешиваясь с эмигрантами!
Факт, что военных и граждан предприятий заставляют голосовать за партию Единая Россия и Путина
ПОД СТРАХОМ УВОЛЬНЕНИЯ!
Нам не нужно Правительство, блокирующее личную жизнь, интернет, нарушающее сохранность данных.
Все эти действия финансируются за счёт народа!