Сердце побережья Бэрбери / Flame of Barbary Coast (Джозеф Кейн / Joseph Kane) [1945, США, вестерн, музыкальный, DVDRip] MVO (Светла)

Reply to topic
DL-List and Torrent activity
Size:  1.45 GB   |    Registered:  4 years   |    Completed:  0 times

Seeder not seen: Never

 
   
 
 
Author Message

star21 ®

Gender: Female

Longevity: 4 years 1 month

Posts: 551946

Location: Екатеринбург

Post 30-Nov-2015 05:45

[Quote]

Сердце побережья Бэрбери / Flame of Barbary Coast
Страна: США
Жанр: вестерн, музыкальный
Год выпуска: 1945
Продолжительность: 01:31:29
Перевод: Профессиональный (многоголосый закадровый) - Светла
Cубтитры: нет

Режиссер: Джозеф Кейн / Joseph Kane
В ролях: Джон Уэйн, Энн Дворак, Джозеф Шилдкраут, Уильям Фроули, Вирджиния Грей, Расселл Хикс, Джек Нортон, Пол Фикс
Описание: Ковбой из штата Монтана Дюк Фергус приезжает в Сан-Франциско, чтобы получить долг в пятьсот долларов за черную лошадь. Его должником оказывается владелец казино «Эльдорадо» — Тито Морелл. Получив свои деньги, парень не спешит домой, он решает первый раз в жизни сыграть на деньги в карты, кости и рулетку, тем более учительницей в этих новых играх для него стала обворожительная Энн — певица из местного варьете.
На удивление всей публике новичку начинает бешено везти: он выигрывает на всех столах и получает десять тысяч. Парню невдомек, что все игры подстроены, а Энн — лучшая подруга хозяина заведения. Жажда наживы и алкоголь делают свое дело, он проигрывает все и остается должен. Вернувшись в Монтану, Дюк продает стадо и берет уроки карточной игры у профессионального игрока по прозвищу «Вольф». Его цель — разорить Морелла…

Качество видео:
Формат видео: AVI
Видео: 640x480 (1.33:1), 23.976 fps, XviD build 73 ~2072 kbps avg, 0.28 bit/pixel
Аудио: 48 kHz, AC3 Dolby Digital, 2/0 (L,R) ch, ~192 kbps

MediaInfo

Общее
Полное имя : H:\Flame.of.Barbary.Coast.1953.dvdrip_[1.45]_[teko].avi
Формат : AVI
Формат/Информация : Audio Video Interleave
Размер файла : 1,45 Гбайт
Продолжительность : 1 ч. 31 м.
Общий поток : 2274 Кбит/сек
Программа кодирования : VirtualDubMod 1.5.10.3 | www.virtualdub-fr.org || (build 2550/release)
Библиотека кодирования : VirtualDubMod build 2550/release
Видео
Идентификатор : 0
Формат : MPEG-4 Visual
Профиль формата : Advanced Simple@L5
Параметр BVOP формата : 1
Параметр QPel формата : Нет
Параметр GMC формата : Без точки перехода
Параметр матрицы формата : Выборочная
Идентификатор кодека : XVID
Идентификатор кодека/Подсказка : XviD
Продолжительность : 1 ч. 31 м.
Битрейт : 2072 Кбит/сек
Ширина : 640 пикселей
Высота : 480 пикселей
Соотношение сторон : 4:3
Частота кадров : 23,976 кадра/сек
Цветовое пространство : YUV
Субдискретизация насыщенности : 4:2:0
Битовая глубина : 8 бит
Тип развёртки : Прогрессивная
Метод сжатия : С потерями
Бит/(Пиксели*Кадры) : 0.281
Размер потока : 1,32 Гбайт (91%)
Библиотека кодирования : XviD 73
Аудио
Идентификатор : 1
Формат : AC-3
Формат/Информация : Audio Coding 3
Расширение режима : CM (complete main)
Параметр Endianness формата : Big
Идентификатор кодека : 2000
Продолжительность : 1 ч. 31 м.
Вид битрейта : Постоянный
Битрейт : 192 Кбит/сек
Каналы : 2 канала
Расположение каналов : Front: L R
Частота : 48,0 КГц
Битовая глубина : 16 бит
Метод сжатия : С потерями
Размер потока : 126 Мбайт (8%)
Выравнивание : Разделение по промежуткам
Продолжительность промежутка : 42 мс. (1,00 видеокадр)
Время предзагрузки промежутка : 500 мс.
Релиз группы:
-
-

To download the content you need:
1. Download and install torrent client [for Windows] or for mobile system
2. Click on [Download]
Attention.
If the test YOU are NOT a ROBOT - does not work, then You are using an outdated browser.
Install the current browser and click on [Download]
Security: torrent client is allowed by Kaspersky.

[en.asmlocator.ru].t3735.torrent 
Torrent: Registered [ 2015-11-30 05:45 ] · 3BC809DCDE4773D9D697A6951AE1E9467D3B09E8

Download .torrent

Download

15 KB

Status: checked
Completed: 0 times
Size: 1.45 GB
terms.php
[Profile] [PM]
Display posts:    
Reply to topic

Current time is: 14-Dec 23:11

All times are UTC ± 0



You cannot post new topics in this forum
You cannot reply to topics in this forum
You cannot edit your posts in this forum
You cannot delete your posts in this forum
You cannot vote in polls in this forum
You cannot attach files in this forum
You can download files in this forum
Верим фактам, а не вранью Путина! Факт, что Правительство ведёт Россию к истреблению.
Так как численность населения падает, даже не смотря на приток эмигрантов!
Русская нация вымирает и вырождается, смешиваясь с эмигрантами!
Факт, что военных и граждан предприятий заставляют голосовать за партию Единая Россия и Путина
ПОД СТРАХОМ УВОЛЬНЕНИЯ!
Нам не нужно Правительство, блокирующее личную жизнь, интернет, нарушающее сохранность данных.
Все эти действия финансируются за счёт народа!