О! / Зовите меня "О"! / Ho! (Робер Энрико / Robert Enrico) [1968, Франция, Италия, криминальная драма, DVDRip-AVC] MVO + MVO + Original Fre

Reply to topic
DL-List and Torrent activity
Size:  2.13 GB   |    Registered:  4 years   |    Completed:  0 times

Seeder not seen: Never

 
   
 
 
Author Message

star21 ®

Gender: Female

Longevity: 4 years 1 month

Posts: 551946

Location: Екатеринбург

Post 30-Nov-2015 05:45

[Quote]

О! / Зовите меня "О"! / Ho!
Не называй меня Оленем!
Страна: Франция, Италия
Жанр: криминальная драма
Год выпуска: 1968
Продолжительность: 01:42:25
Перевод: Профессиональный (многоголосый закадровый) - ТВ СПб, 1996
Перевод 2: Профессиональный (многоголосый закадровый) - с исходного DVD9
Cубтитры: нет
Оригинальная аудиодорожка: французский
Режиссер: Робер Энрико / Robert Enrico
В ролях: Жан-Поль Бельмондо, Джоанна Шимкус, Сидни Чаплин, Раймон Бюсьер, Поль Кроше
Описание: Автогонщик Франсуа Олен, по вине которого погиб его друг и коллега, лишается спортивной лицензии и становится шофером гангстерской банды. Новые боссы смотрят на него свысока и презрительно именуют "О!". Вскоре случай дает Олену возможность получить уважение и авторитет в преступной среде и заявить своим обидчикам: "Не смейте называть меня "О!"
Доп. информация: Рип с DVD9 из раздачи - спасибо, Murya!
Сэмпл: http://multi-up.com/1069935
Качество видео: DVDRip-AVC
Формат видео: MKV
Видео: V_MPEG4/ISO/AVC, 656@957x576, 1.661, 25 fps, 2 532 Kbps
Аудио: AC3, 48.0 KHz, 2 channels, 128 Kbps
Аудио 2: AC3, 48.0 KHz, 2 channels, 128 Kbps
Аудио 3: AC3, 48.0 KHz, 2 channels, 128 Kbps

MediaInfo

General
Unique ID : 248954555082813498395671169051238684589 (0xBB4AE73AE784239787377297EADD57AD)
Complete name : D:\temp\Ho.1968.2Rus.Fr.DVDRipAVC.mkv
Format : Matroska
Format version : Version 4 / Version 2
File size : 2.13 GiB
Duration : 1h 42mn
Overall bit rate : 2 975 Kbps
Encoded date : UTC 2015-10-07 10:26:46
Writing application : mkvmerge v7.9.0 ('Birds') 32bit
Writing library : libebml v1.3.1 + libmatroska v1.4.2
_STATISTICS_WRITING_APP : mkvmerge v7.9.0 ('Birds') 32bit
_STATISTICS_WRITING_DATE_UTC : 2015-10-07 10:26:46
_STATISTICS_TAGS : BPS DURATION NUMBER_OF_FRAMES NUMBER_OF_BYTES
DURATION : 01:42:25.024000000
NUMBER_OF_FRAMES : 192032
NUMBER_OF_BYTES : 98320384
Video
ID : 1
Format : AVC
Format/Info : Advanced Video Codec
Format profile : High@L4.1
Format settings, CABAC : Yes
Format settings, ReFrames : 16 frames
Codec ID : V_MPEG4/ISO/AVC
Duration : 1h 42mn
Bit rate : 2 532 Kbps
Width : 656 pixels
Height : 576 pixels
Display aspect ratio : 1.661
Frame rate mode : Constant
Frame rate : 25.000 fps
Color space : YUV
Chroma subsampling : 4:2:0
Bit depth : 8 bits
Scan type : Progressive
Bits/(Pixel*Frame) : 0.268
Stream size : 1.81 GiB (85%)
Writing library : x264 core 146 r2538 121396c
Encoding settings : cabac=1 / ref=16 / deblock=1:-1:-1 / analyse=0x3:0x133 / me=umh / subme=10 / psy=1 / psy_rd=1.00:0.15 / mixed_ref=1 / me_range=28 / chroma_me=1 / trellis=2 / 8x8dct=1 / cqm=0 / deadzone=21,11 / fast_pskip=1 / chroma_qp_offset=-3 / threads=6 / lookahead_threads=1 / sliced_threads=0 / nr=0 / decimate=1 / interlaced=0 / bluray_compat=0 / constrained_intra=0 / bframes=8 / b_pyramid=2 / b_adapt=2 / b_bias=0 / direct=3 / weightb=1 / open_gop=0 / weightp=2 / keyint=250 / keyint_min=25 / scenecut=40 / intra_refresh=0 / rc_lookahead=60 / rc=crf / mbtree=1 / crf=19.5 / qcomp=0.60 / qpmin=0 / qpmax=69 / qpstep=4 / vbv_maxrate=62500 / vbv_bufsize=78125 / crf_max=0.0 / nal_hrd=none / filler=0 / ip_ratio=1.40 / aq=1:1.00
Default : Yes
Forced : No
Audio #1
ID : 2
Format : AC-3
Format/Info : Audio Coding 3
Mode extension : CM (complete main)
Format settings, Endianness : Big
Codec ID : A_AC3
Duration : 1h 42mn
Bit rate mode : Constant
Bit rate : 128 Kbps
Channel(s) : 2 channels
Channel positions : Front: L R
Sampling rate : 48.0 KHz
Bit depth : 16 bits
Compression mode : Lossy
Stream size : 93.8 MiB (4%)
Title : Rus-MVO-1
Language : Russian
Default : Yes
Forced : No
Audio #2
ID : 3
Format : AC-3
Format/Info : Audio Coding 3
Mode extension : CM (complete main)
Format settings, Endianness : Big
Codec ID : A_AC3
Duration : 1h 42mn
Bit rate mode : Constant
Bit rate : 128 Kbps
Channel(s) : 2 channels
Channel positions : Front: L R
Sampling rate : 48.0 KHz
Bit depth : 16 bits
Compression mode : Lossy
Stream size : 93.8 MiB (4%)
Title : Rus-MVO-2
Language : Russian
Default : No
Forced : No
Audio #3
ID : 4
Format : AC-3
Format/Info : Audio Coding 3
Mode extension : CM (complete main)
Format settings, Endianness : Big
Codec ID : A_AC3
Duration : 1h 42mn
Bit rate mode : Constant
Bit rate : 128 Kbps
Channel(s) : 2 channels
Channel positions : Front: L R
Sampling rate : 48.0 KHz
Bit depth : 16 bits
Compression mode : Lossy
Stream size : 93.8 MiB (4%)
Title : Fr-ORG
Language : French
Default : No
Forced : No

Скриншот c названием фильма

Скриншоты

To download the content you need:
1. Download and install torrent client [for Windows] or for mobile system
2. Click on [Download]
Attention.
If the test YOU are NOT a ROBOT - does not work, then You are using an outdated browser.
Install the current browser and click on [Download]
Security: torrent client is allowed by Kaspersky.

[en.asmlocator.ru].t3733.torrent 
Torrent: Registered [ 2015-11-30 05:45 ] · 67A5998DED9AC161DFD17960CDF5AAE473334B78

Download .torrent

Download

11 KB

Status: checked
Completed: 0 times
Size: 2.13 GB
terms.php
[Profile] [PM]
Display posts:    
Reply to topic

Current time is: 08-Dec 16:04

All times are UTC ± 0



You cannot post new topics in this forum
You cannot reply to topics in this forum
You cannot edit your posts in this forum
You cannot delete your posts in this forum
You cannot vote in polls in this forum
You cannot attach files in this forum
You can download files in this forum
Верим фактам, а не вранью Путина! Факт, что Правительство ведёт Россию к истреблению.
Так как численность населения падает, даже не смотря на приток эмигрантов!
Русская нация вымирает и вырождается, смешиваясь с эмигрантами!
Факт, что военных и граждан предприятий заставляют голосовать за партию Единая Россия и Путина
ПОД СТРАХОМ УВОЛЬНЕНИЯ!
Нам не нужно Правительство, блокирующее личную жизнь, интернет, нарушающее сохранность данных.
Все эти действия финансируются за счёт народа!