Блаженный Александр / Счастливчик Александр / Alexandre le bienheureux (Ив Робер / Yves Robert) [1968, Франция, комедия, HDRip] VO (Метелев)

Reply to topic
DL-List and Torrent activity
Size:  1.45 GB   |    Registered:  4 years 7 months   |    Completed:  0 times

Seeder not seen: Never

 
   
 
 
Author Message

star21 ®

Gender: Female

Longevity: 4 years 8 months

Posts: 551945

Location: Екатеринбург

Post 30-Nov-2015 05:45

[Quote]

Блаженный Александр / Счастливчик Александр / Alexandre le bienheureux
Страна: Франция
Жанр: комедия
Год выпуска: 1968
Продолжительность: 01:35:48
Перевод: Одноголосый закадровый - Денис Метелев
Cубтитры: нет

Режиссер: Ив Робер / Yves Robert
В ролях: Филипп Нуаре, Франсуаз Брион, Марлен Жобер, Поль Ле Персон, Цилла Шелтон, Леонс Корн, Пьер Ришар, Жан Содрэ, Пьер Барнли, Марсель Бернье
Описание: Александр, молодой и честный фермер, находящийся под гнетом авторитарной жены, работает круглые сутки на полях. Его единственное развлечение — считать птиц и играть на трубе в местном клубе, но и этого жена его лишает, заставляя работать и в выходные. Когда она погибает в автомобильной катастрофе, для Александра наступает праздник! Он забрасывает работу и нежится в постели совершенно беззаботно как младенец несколько месяцев. Его завхоз и единственный друг, метис фокстерьер, приносит еду и прессу. Соседские мужики — видя как расслабляется Александр, начинают ему дико завидовать. А тем временем в город приезжает сиротка и красавица Агата для работы в местном магазине и кладет глаз на Александра, как на выгодную партию — с его огромным хозяйством он просто Ротшильд среди фермеров.
Качество видео:
Формат видео: AVI
Видео: 720x384 (1.88:1), 24 fps, XviD build 73 ~1972 kbps avg, 0.30 bit/pixel
Аудио: 48 kHz, AC3 Dolby Digital, 2/0 (L,R) ch, ~192 kbps

MediaInfo

Общее
Полное имя : H:\Alexandre.le.bienheureux.1968.hdrip_[1.46]_[teko].avi
Формат : AVI
Формат/Информация : Audio Video Interleave
Размер файла : 1,45 Гбайт
Продолжительность : 1 ч. 35 м.
Общий поток : 2174 Кбит/сек
Программа кодирования : VirtualDubMod 1.5.10.3 | www.virtualdub-fr.org || (build 2550/release)
Библиотека кодирования : VirtualDubMod build 2550/release
Видео
Идентификатор : 0
Формат : MPEG-4 Visual
Профиль формата : Advanced Simple@L5
Параметр BVOP формата : 1
Параметр QPel формата : Нет
Параметр GMC формата : Без точки перехода
Параметр матрицы формата : Выборочная
Идентификатор кодека : XVID
Идентификатор кодека/Подсказка : XviD
Продолжительность : 1 ч. 35 м.
Битрейт : 1973 Кбит/сек
Ширина : 720 пикселей
Высота : 384 пикселя
Соотношение сторон : 1,85:1
Частота кадров : 24,000 кадра/сек
Цветовое пространство : YUV
Субдискретизация насыщенности : 4:2:0
Битовая глубина : 8 бит
Тип развёртки : Прогрессивная
Метод сжатия : С потерями
Бит/(Пиксели*Кадры) : 0.297
Размер потока : 1,32 Гбайт (91%)
Библиотека кодирования : XviD 73
Аудио
Идентификатор : 1
Формат : AC-3
Формат/Информация : Audio Coding 3
Расширение режима : CM (complete main)
Параметр Endianness формата : Big
Идентификатор кодека : 2000
Продолжительность : 1 ч. 35 м.
Вид битрейта : Постоянный
Битрейт : 192 Кбит/сек
Каналы : 2 канала
Расположение каналов : Front: L R
Частота : 48,0 КГц
Битовая глубина : 16 бит
Метод сжатия : С потерями
Размер потока : 132 Мбайт (9%)
Выравнивание : Разделение по промежуткам
Продолжительность промежутка : 42 мс. (1,00 видеокадр)
Время предзагрузки промежутка : 500 мс.
Релиз группы:--Внимание!!! 7.10.2015 торрент-файл перезалит. Улучшено качество видео DVDRip --> HDRip

To download the content you need:
1. Download and install torrent client [for Windows] or for mobile system
2. Click on [Download]
Attention.
If the test YOU are NOT a ROBOT - does not work, then You are using an outdated browser.
Install the current browser and click on [Download]

Do not work with Yandex browser. Uploading files to them is erroneous.
Security: torrent client is allowed by Kaspersky.

[en.asmlocator.ru].t3731.torrent 
Torrent: Registered [ 2015-11-30 05:45 ] · BEBEDEDF31829DF52BFB0CEE4F57704478F4F39E

Download .torrent

Download

15 KB

Status: checked
Completed: 0 times
Size: 1.45 GB
terms.php
[Profile] [PM]
Display posts:    
Reply to topic

Current time is: 14-Jul 02:21

All times are UTC ± 0



You cannot post new topics in this forum
You cannot reply to topics in this forum
You cannot edit your posts in this forum
You cannot delete your posts in this forum
You cannot vote in polls in this forum
You cannot attach files in this forum
You can download files in this forum