Хрустальный башмачок / The Glass Slipper (Чарльз Уолтерс / Charles Walters) [1955, США, мюзикл, мелодрама, DVDRip] MVO (Фильм-Экспорт) + Original Eng

Reply to topic
DL-List and Torrent activity
Size:  1.49 GB   |    Registered:  4 years 7 months   |    Completed:  1 time

Seeder not seen: 8 months 25 days

 
   
 
 
Author Message

star21 ®

Gender: Female

Longevity: 4 years 8 months

Posts: 551945

Location: Екатеринбург

Post 30-Nov-2015 05:45

[Quote]

Хрустальный башмачок / The Glass Slipper
Страна: США
Жанр: мюзикл, мелодрама
Год выпуска: 1955
Продолжительность: 01:34:04
Перевод: Профессиональный (многоголосый закадровый) Фильм-Экспорт
Cубтитры: нет
Оригинальная аудиодорожка: английский (отдельным файлом)
Режиссер: Чарльз Уолтерс / Charles Walters
В ролях: Лесли Карон — Элла
Майкл Уайлдинг — принц Чарльз
Эльза Ланчестер — вдова Зондер (мачеха Эллы)
Аманда Блейк — Бердина (сводная сестра Эллы)
Лиза Дэниелс — Серафина (сводная сестра Эллы)
Барри Джонс — герцог (отец принца Чарльза)
Эстель Уинвуд — миссис Токе
Кинэн Уинн — Ковин
Лёрин Таттл — кузина Лулу
Лилиана Монтевикки — Техара
Уолтер Пиджон — рассказчик
Описание: Экранизация сказки Шарля Перро.
Элла — девушка, живущая в глухой деревеньке. Она постоянно терпит нападки и издевательства мачехи и сводных сестёр, которые считают её ненормальной. Но однажды Элла знакомится с красивым молодым человеком, который представляется ей сыном личного повара герцога. Парень влюбляется в Эллу и приглашает её на бал, где оказывается, что он не поварской сын, а сын самого герцога…
Фильм про Золушку.
Доп. информация:
Сценарий: Хелен Дьютч / Helen Deutsch
Оператор: Артур И. Арлинг / Arthur E. Arling
Композитор: Бронислав Капер / Bronislau Kaper
Хореография: Ролан Пети / Roland Petit
На русский язык фильм озвучен на киностудии "Фильм-Экспорт". Перевод на русский язык Валентин Попсуев, роли озвучивали: Наталья Гурзо, Людмила Гнилова, Людмила Ильина, Вадим Андреев, Дмитрий Полонский, Владимир Герасимов.
Звуковая дорожка и описание взяты из релиза:
kinopoisk.ru
[imdb]http://www.imdb.com/title/tt0048124[/imdb]
Сэмпл
Качество видео: DVDRip
Формат видео: AVI
Видео: XVID, 704x384, 23.976 fps, 1.85:1, 2 019 Kbps
Аудио: Русский, AC-3, 192 Kbps, 2 channels, 48.0 KHz
Аудио 2: Английский (отдельным файлом), AC-3, 256 Kbps, 2 channels, 48.0 KHz

MediaInfo

General
Complete name : F:\Хрустальный башмачок The Glass Slipper (Charles Walters ) [1955]\Хрустальный башмачок 1955 (Рус).avi
Format : AVI
Format/Info : Audio Video Interleave
File size : 1.33 GiB
Duration : 1h 34mn
Overall bit rate : 2 019 Kbps
Movie name : The Glass Slipper
Genre : Musical, Romance, Drama
Recorded date : 1955
Archival location : [CG]-[KG]
Writing application : VirtualDubMod 1.5.10.2 (build 2540/release)
Writing library : VirtualDubMod build 2540/release
Comment : Encoder-My/\DVDRip_Guild55
Video
ID : 0
Format : MPEG-4 Visual
Format profile : Advanced Simple@L5
Format settings, BVOP : 2
Format settings, QPel : No
Format settings, GMC : No warppoints
Format settings, Matrix : Custom
Codec ID : XVID
Codec ID/Hint : XviD
Duration : 1h 34mn
Bit rate : 1 818 Kbps
Width : 704 pixels
Height : 384 pixels
Display aspect ratio : 1.85:1
Frame rate : 23.976 fps
Color space : YUV
Chroma subsampling : 4:2:0
Bit depth : 8 bits
Scan type : Progressive
Compression mode : Lossy
Bits/(Pixel*Frame) : 0.280
Stream size : 1.19 GiB (90%)
Writing library : XviD 1.2.1 (UTC 2008-12-04)
Audio
ID : 1
Format : AC-3
Format/Info : Audio Coding 3
Mode extension : CM (complete main)
Format settings, Endianness : Big
Codec ID : 2000
Duration : 1h 34mn
Bit rate mode : Constant
Bit rate : 192 Kbps
Channel(s) : 2 channels
Channel positions : Front: L R
Sampling rate : 48.0 KHz
Bit depth : 16 bits
Compression mode : Lossy
Stream size : 129 MiB (10%)
Alignment : Split accross interleaves
Interleave, duration : 42 ms (1.00 video frame)
Interleave, preload duration : 500 ms
Title : Русский (Фильм-Экспорт)

Скриншот c названием фильма

Скриншоты




To download the content you need:
1. Download and install torrent client [for Windows] or for mobile system
2. Click on [Download]
Attention.
If the test YOU are NOT a ROBOT - does not work, then You are using an outdated browser.
Install the current browser and click on [Download]

Do not work with Yandex browser. Uploading files to them is erroneous.
Security: torrent client is allowed by Kaspersky.

[en.asmlocator.ru].t3728.torrent 
Torrent: Registered [ 2015-11-30 05:45 ] · 3935FD2290E3A13CF1ED42FA2699E8AD1A1E2A68

Download .torrent

Download

16 KB

Status: checked
Completed: 1 times
Size: 1.49 GB
terms.php
[Profile] [PM]
Display posts:    
Reply to topic

Current time is: 14-Jul 00:14

All times are UTC ± 0



You cannot post new topics in this forum
You cannot reply to topics in this forum
You cannot edit your posts in this forum
You cannot delete your posts in this forum
You cannot vote in polls in this forum
You cannot attach files in this forum
You can download files in this forum