Битва при Сан-Себастьяне / Оружие для Сан-Себастьяна / Guns for San Sebastian / La Bataille de San Sebastian (Анри Верней / Henri Verneuil) [1968, США, Франция, Италия, Мексика, Вестерн, DVDRip] MVO (Петербург 5 канал)

Reply to topic
DL-List and Torrent activity
Size:  1.46 GB   |    Registered:  4 years   |    Completed:  1 time

Seeder not seen: 5 minutes

 
   
 
 
Author Message

star21 ®

Gender: Female

Longevity: 4 years 1 month

Posts: 551946

Location: Екатеринбург

Post 30-Nov-2015 05:45

[Quote]

Битва при Сан-Себастьяне / Guns for San Sebastian / La Bataille de San Sebastian
Страна: США, Франция, Италия, Мексика
Жанр: Вестерн
Год выпуска: 1968
Продолжительность: 1:46:31
Перевод: Профессиональный (многоголосый закадровый) Петербург 5 канал
Cубтитры: нет
Оригинальная аудиодорожка: английский
Режиссер: Анри Верней / Henri Verneuil
Композитор: Эннио Морриконе / Ennio Morricone
В ролях: Энтони Куинн, Анжанетт Комер, Чарльз Бронсон, Сэм Джаффе, Сильвия Пиналь, Хорхе Мартинез де Ойос, Роза Фурман
Описание: По роману Уильяма Барби Фаэрти. Действие фильма происходит в Мексике в 1746 году. Леона Аластрэя, беглого преступника, прячет священник отец Джозеф. Но когда местные власти выясняют, что священник укрывает преступника, то им обоим приходится покинуть город. Их путь лежит в заброшенную деревню, но там отца Джозефа убивают бандиты, а местные жители принимают Аластрэя за священника и предлагают ему стать духовным лидером. Он вынужден согласиться, поскольку не хочет, чтобы открылось его настоящее имя. Жизнь постепенно налаживается, но предстоит большое сражение со злобными индейцами Яку...
Дополнительная информация: Русская дорожка отсюда - большое спасибо StudioRAK
Сэмпл: http://multi-up.com/1070137
Качество видео: DVDRip
Формат видео: AVI
Видео: PAL, 688х304, VBR, 2,26:1, XviD MPEG-4 ~1825 Кбит/сек, 25fps
Аудио: Русский, Петербург 5 канал, mp3, 2 кан., 48 кГц, 128 Кбит/сек

MediaInfo

Общее
Полное имя : D:\San Sebastian\Guns for San Sebastian [1968].avi
Формат : AVI
Формат/Информация : Audio Video Interleave
Размер файла : 1,46 Гбайт
Продолжительность : 1 ч. 46 м.
Общий поток : 1963 Кбит/сек
Программа кодирования : VirtualDubMod 1.5.10.2 (build 2540/release)
Библиотека кодирования : VirtualDubMod build 2540/release
Видео
Идентификатор : 0
Формат : MPEG-4 Visual
Профиль формата : Advanced Simple@L5
Параметр BVOP формата : 1
Параметр QPel формата : Нет
Параметр GMC формата : Без точки перехода
Параметр матрицы формата : Default (MPEG)
Идентификатор кодека : XVID
Идентификатор кодека/Подсказка : XviD
Продолжительность : 1 ч. 46 м.
Битрейт : 1825 Кбит/сек
Ширина : 688 пикселей
Высота : 304 пикселя
Соотношение сторон : 2,25:1
Частота кадров : 25,000 кадров/сек
Цветовое пространство : YUV
Субдискретизация насыщенности : 4:2:0
Битовая глубина : 8 бит
Тип развёртки : Прогрессивная
Метод сжатия : С потерями
Бит/(Пиксели*Кадры) : 0.349
Размер потока : 1,36 Гбайт (93%)
Библиотека кодирования : XviD 1.2.1 (UTC 2008-12-04)
Аудио
Идентификатор : 1
Формат : MPEG Audio
Версия формата : Version 1
Профиль формата : Layer 3
Идентификатор кодека : 55
Идентификатор кодека/Подсказка : MP3
Продолжительность : 1 ч. 46 м.
Вид битрейта : Постоянный
Битрейт : 128 Кбит/сек
Каналы : 2 канала
Частота : 48,0 КГц
Метод сжатия : С потерями
Размер потока : 97,5 Мбайт (7%)
Выравнивание : Соединение по промежуткам
Продолжительность промежутка : 40 мс. (1,00 видеокадр)
Время предзагрузки промежутка : 504 мс.

Скриншот c названием фильма

Скриншоты

Сравнение

с раздачей, откуда взята русская дорожка.
К скриншотам этой, новой раздачи сверху и снизу добавлены чёрные полосы по 8 пикселей.
http://screenshotcomparison.com/comparison/145945
По настоянию модератора сделал новое сравнение, увеличив мои скриншоты по вертикали до 320 пикселей. Хотя по моему мнению это не корректно, так как исказились пропорции кадра, и то, что мы видим на сравнении не соответствует истине:
http://screenshotcomparison.com/comparison/145950

To download the content you need:
1. Download and install torrent client [for Windows] or for mobile system
2. Click on [Download]
Attention.
If the test YOU are NOT a ROBOT - does not work, then You are using an outdated browser.
Install the current browser and click on [Download]
Security: torrent client is allowed by Kaspersky.

[en.asmlocator.ru].t3727.torrent 
Torrent: Registered [ 2015-11-30 05:45 ] · 6A70453536C6AFFBDB0C4B8921FCDA5E557B4499

Download .torrent

Download

15 KB

Status: checked
Completed: 1 times
Size: 1.46 GB
terms.php
[Profile] [PM]
Display posts:    
Reply to topic

Current time is: 08-Dec 11:05

All times are UTC ± 0



You cannot post new topics in this forum
You cannot reply to topics in this forum
You cannot edit your posts in this forum
You cannot delete your posts in this forum
You cannot vote in polls in this forum
You cannot attach files in this forum
You can download files in this forum
Верим фактам, а не вранью Путина! Факт, что Правительство ведёт Россию к истреблению.
Так как численность населения падает, даже не смотря на приток эмигрантов!
Русская нация вымирает и вырождается, смешиваясь с эмигрантами!
Факт, что военных и граждан предприятий заставляют голосовать за партию Единая Россия и Путина
ПОД СТРАХОМ УВОЛЬНЕНИЯ!
Нам не нужно Правительство, блокирующее личную жизнь, интернет, нарушающее сохранность данных.
Все эти действия финансируются за счёт народа!