Голдфингер / Goldfinger (Гай Хэмилтон / Guy Hamilton) [1964, Великобритания, Шпионский фильм, BDRip] MVO (Лазер Видео)

Reply to topic
DL-List and Torrent activity
Size:  2.01 GB   |    Registered:  4 years   |    Completed:  0 times

Seeder not seen: Never

 
   
 
 
Author Message

star21 ®

Gender: Female

Longevity: 4 years 1 month

Posts: 551946

Location: Екатеринбург

Post 29-Nov-2015 19:39

[Quote]

Голдфингер / Goldfinger
Страна: Великобритания
Жанр: Шпионский фильм
Год выпуска: 1964
Продолжительность: 1:50:01
Перевод: Профессиональный (многоголосый закадровый) Лазер Видео
Cубтитры: нет
Режиссер: Гай Хэмилтон/Guy Hamilton
В ролях: Шон Коннери, Онор Блэкмен, Герт Фрёбе, Ширли Итон
Описание: На этот раз Джеймс Бонд борется со злом в лице международного преступника Голдфингера. Негодяй планирует уничтожить золотой запас США, и таким образом ввергнуть в пучину хаоса все капиталистическое общество.
Доп. информация: Владимир Вихров и др.
Сэмпл: http://sendfile.su/1162502
Качество видео: BDRip
Исходник:
Формат видео: AVI
Видео: XVid, 720x404, 16:9, 23.976 fps, 2 406 Kbps
Аудио: MP3, 44.1 KHz, 192 Kbps, 1 channel

MediaInfo

General
Complete name : D:\Фильмы\UTorrent\ГолдФингер\xVid Goldfinger.avi
Format : AVI
Format/Info : Audio Video Interleave
Format profile : OpenDML
File size : 2.01 GiB
Duration : 1h 50mn
Overall bit rate : 2 611 Kbps
Writing library : VirtualDub build 35491/release
Video
ID : 0
Format : MPEG-4 Visual
Format profile : Advanced Simple@L5
Format settings, BVOP : 2
Format settings, QPel : No
Format settings, GMC : No warppoints
Format settings, Matrix : Default (H.263)
Muxing mode : Packed bitstream
Codec ID : XVID
Codec ID/Hint : XviD
Duration : 1h 50mn
Bit rate : 2 406 Kbps
Width : 720 pixels
Height : 404 pixels
Display aspect ratio : 16:9
Frame rate : 23.976 fps
Color space : YUV
Chroma subsampling : 4:2:0
Bit depth : 8 bits
Scan type : Progressive
Compression mode : Lossy
Bits/(Pixel*Frame) : 0.345
Stream size : 1.85 GiB (92%)
Writing library : XviD 73
Audio
ID : 1
Format : MPEG Audio
Format version : Version 1
Format profile : Layer 3
Codec ID : 55
Codec ID/Hint : MP3
Duration : 1h 50mn
Bit rate mode : Constant
Bit rate : 192 Kbps
Channel(s) : 1 channel
Sampling rate : 44.1 KHz
Compression mode : Lossy
Stream size : 151 MiB (7%)
Alignment : Split accross interleaves
Interleave, duration : 42 ms (1.00 video frame)
Interleave, preload duration : 500 ms
Writing library : LAME3.99.5ЄЄЄЄЄЄЄЄЄЄ

Скриншот c названием фильма

Скриншоты












To download the content you need:
1. Download and install torrent client [for Windows] or for mobile system
2. Click on [Download]
Attention.
If the test YOU are NOT a ROBOT - does not work, then You are using an outdated browser.
Install the current browser and click on [Download]
Security: torrent client is allowed by Kaspersky.

[en.asmlocator.ru].t3725.torrent 
Torrent: Registered [ 2015-11-29 19:36 ] · 3FB694277100E5A2F712F4B0FAF5C0C1B7759353

Download .torrent

Download

11 KB

Status: checked
Completed: 0 times
Size: 2.01 GB
terms.php
[Profile] [PM]
Display posts:    
Reply to topic

Current time is: 08-Dec 10:01

All times are UTC ± 0



You cannot post new topics in this forum
You cannot reply to topics in this forum
You cannot edit your posts in this forum
You cannot delete your posts in this forum
You cannot vote in polls in this forum
You cannot attach files in this forum
You can download files in this forum
Верим фактам, а не вранью Путина! Факт, что Правительство ведёт Россию к истреблению.
Так как численность населения падает, даже не смотря на приток эмигрантов!
Русская нация вымирает и вырождается, смешиваясь с эмигрантами!
Факт, что военных и граждан предприятий заставляют голосовать за партию Единая Россия и Путина
ПОД СТРАХОМ УВОЛЬНЕНИЯ!
Нам не нужно Правительство, блокирующее личную жизнь, интернет, нарушающее сохранность данных.
Все эти действия финансируются за счёт народа!