Палец на курке / Finger on the Trigger (Сидни В. Пинк / Sidney W. Pink) [1965, Испания, США, Драма, вестерн, DVDRip] DVO + Sub Rus + Original Eng

Reply to topic
DL-List and Torrent activity
Size:  1.37 GB   |    Registered:  4 years   |    Completed:  0 times

Seeder not seen: 9 months 14 days

 
   
 
 
Author Message

star21 ®

Gender: Female

Longevity: 4 years 1 month

Posts: 551946

Location: Екатеринбург

Post 29-Nov-2015 19:39

[Quote]

--Палец на курке / Finger on the Trigger-- Страна: Испания, США
Жанр: драма, вестерн
Год выпуска: 1965
Продолжительность: 01:31:18-Перевод: Любительский (двухголосый закадровый)
Cубтитры: русские
Оригинальная аудиодорожка: английский-Режиссер: Сидни В. Пинк / Sidney W. Pink-В ролях: Рори Кэлхун, Альдо Самбрель, Джеймс Филбрук, Лео Анчориз, Тодд Мартин, Жорж Риго, Сильвия Солар, Брюс Талбот, Аксель Андерсон, Фернандо Бильбао и др.-Описание: Гражданская война закончилась и демобилизованные солдаты союза едут в Санта Фе, чтобы получить землю и начать новую жизнь. Но внезапно на их пути появляются отряд конфедератов, куча золота и кровожадные индейцы. Всё это переплетается в опасный клубок, выбраться из которого сможет не каждый.-Доп. информация:
Перевод: Свен Железнов
Перевод на испанские фрагменты: Алексей Alassea Крюков, Lesana Fh
Закадровый текст: Сергей Кудрявцев (вокалист группы "Братство Конца") и Елена Гончарова
Релиз подготовил: Skyns61
Фильм переведен и озвучен специально для 7букв Вестерн группы Джесси Джеймса
- [imdb]http://www.imdb.com/title/tt0059178[/imdb] -Качество видео: DVDRip
Формат видео: AVI
Видео: XviD, 720x304 (2,35:1), 25,000 fps, 1750 kbps
Аудио # 1 rus: AC-3, 48 KHz, 2 ch, 192 kbps
Аудио # 2 eng : AC-3, 48 KHz, 2 ch, 192 kbps
Формат субтитров: softsub (SRT)

MediaInfo

Общее
Полное имя : F:\Films\Finger on the Trigger 1965\Finger.on.the.Trigger.1965.avi
Формат : AVI
Формат/Информация : Audio Video Interleave
Размер файла : 1,37 Гбайт
Продолжительность : 1 ч. 31 м.
Общий поток : 2148 Кбит/сек
Программа кодирования : VirtualDubMod 1.5.10.3 (build 2550/release)
Библиотека кодирования : VirtualDubMod build 2550/release
Видео
Идентификатор : 0
Формат : MPEG-4 Visual
Профиль формата : Advanced Simple@L5
Параметр BVOP формата : 2
Параметр QPel формата : Нет
Параметр GMC формата : Без точки перехода
Параметр матрицы формата : Default (MPEG)
Идентификатор кодека : XVID
Идентификатор кодека/Подсказка : XviD
Продолжительность : 1 ч. 31 м.
Битрейт : 1750 Кбит/сек
Ширина : 720 пикселей
Высота : 304 пикселя
Соотношение сторон : 2,35:1
Частота кадров : 25,000 кадров/сек
Цветовое пространство : YUV
Субдискретизация насыщенности : 4:2:0
Битовая глубина : 8 бит
Тип развёртки : Прогрессивная
Метод сжатия : С потерями
Бит/(Пиксели*Кадры) : 0.320
Размер потока : 1,12 Гбайт (81%)
Библиотека кодирования : XviD 73
Аудио #1
Идентификатор : 1
Формат : AC-3
Формат/Информация : Audio Coding 3
Расширение режима : CM (complete main)
Параметр Endianness формата : Big
Идентификатор кодека : 2000
Продолжительность : 1 ч. 31 м.
Вид битрейта : Постоянный
Битрейт : 192 Кбит/сек
Каналы : 2 канала
Расположение каналов : Front: L R
Частота : 48,0 КГц
Метод сжатия : С потерями
Размер потока : 125 Мбайт (9%)
Выравнивание : Разделение по промежуткам
Продолжительность промежутка : 40 мс. (1,00 видеокадр)
Время предзагрузки промежутка : 500 мс.
Аудио #2
Идентификатор : 2
Формат : AC-3
Формат/Информация : Audio Coding 3
Расширение режима : CM (complete main)
Параметр Endianness формата : Big
Идентификатор кодека : 2000
Продолжительность : 1 ч. 31 м.
Вид битрейта : Постоянный
Битрейт : 192 Кбит/сек
Каналы : 2 канала
Расположение каналов : Front: L R
Частота : 48,0 КГц
Метод сжатия : С потерями
Размер потока : 125 Мбайт (9%)
Выравнивание : Разделение по промежуткам
Продолжительность промежутка : 40 мс. (1,00 видеокадр)
Время предзагрузки промежутка : 500 мс.

Скриншот c названием фильма

Скриншоты


To download the content you need:
1. Download and install torrent client [for Windows] or for mobile system
2. Click on [Download]
Attention.
If the test YOU are NOT a ROBOT - does not work, then You are using an outdated browser.
Install the current browser and click on [Download]
Security: torrent client is allowed by Kaspersky.

[en.asmlocator.ru].t3723.torrent 
Torrent: Registered [ 2015-11-29 19:36 ] · ACB591E7DB292E950B505664E1313CE0D4E50A07

Download .torrent

Download

14 KB

Status: checked
Completed: 0 times
Size: 1.37 GB
terms.php
[Profile] [PM]
Display posts:    
Reply to topic

Current time is: 08-Dec 10:59

All times are UTC ± 0



You cannot post new topics in this forum
You cannot reply to topics in this forum
You cannot edit your posts in this forum
You cannot delete your posts in this forum
You cannot vote in polls in this forum
You cannot attach files in this forum
You can download files in this forum
Верим фактам, а не вранью Путина! Факт, что Правительство ведёт Россию к истреблению.
Так как численность населения падает, даже не смотря на приток эмигрантов!
Русская нация вымирает и вырождается, смешиваясь с эмигрантами!
Факт, что военных и граждан предприятий заставляют голосовать за партию Единая Россия и Путина
ПОД СТРАХОМ УВОЛЬНЕНИЯ!
Нам не нужно Правительство, блокирующее личную жизнь, интернет, нарушающее сохранность данных.
Все эти действия финансируются за счёт народа!