Сердце матери / Сердце мамы / Cuore di mamma / Mother\'s Heart (Сальваторе Сампери / Salvatore Samperi) [1969, Италия, Драма, DVDRip] AVO (Владимир Штейн)

Reply to topic
DL-List and Torrent activity
Size:  723 MB   |    Registered:  4 years   |    Completed:  0 times

Seeder not seen: 1 month 25 days

 
   
 
 
Author Message

star21 ®

Gender: Female

Longevity: 4 years 1 month

Posts: 551946

Location: Екатеринбург

Post 29-Nov-2015 19:39

[Quote]

Сердце матери / Сердце мамы / Cuore di mamma / Mother's Heart
Страна: Италия
Жанр: Драма
Год выпуска: 1969
Продолжительность: 01:28:57
Перевод: Авторский (одноголосый закадровый) Владимир Штейн
Cубтитры: нет
Оригинальная аудиодорожка: нет
Режиссер: Сальваторе Сампери / Salvatore Samperi
В ролях: Карла Гравина / Carla Gravina, Филипп Леруа / Philippe Leroy, Беба Лончар / Beba Loncar, Йорго Воягис / Yorgo Voyagis, Паоло Грациози / Paolo Graziosi, Мауро Гравина / Mauro Gravina, Моника Гравина / Monica Gravina, Массимилиано Ференделез / Massimiliano Ferendeles
Описание: Жизнь у Лоренцы непростая. Расставшись с мужем , богатым промышленником-фармацевтом, она осталась одна с тремя весьма проблемными детьми. И все они — своего рода жертвы сегодняшних СМИ, потому что ни мать, ни дети не получают от газет, радио и телевидения ничего иного, кроме все новых и новых порций информации о терроризме. Он повсюду: в Италии, в других странах, в студенческой среде, в семейных отношениях. Лоренца не выдерживает. Чтобы придать какой-то смысл своей жизни она присоединяется к экстремистской группе революционеров. Лоренца решает разобраться с этим миром и берет в руки бомбу, но сыну не нравится, что мать может выйти из под его влияния, и он задумывает чудовищный план...
Доп. информация: Интересно: Главная героиня, Лоренца, за весь фильм не произносит ни слова, но как красноречиво это молчание...
Сэмпл: http://multi-up.com/1070403
Качество видео: DVDRip
Формат видео: AVI
Видео: Xvid, 672x378 (16:9), 25.000 fps, 998 kbps, 0.157 bit/pixel
Аудио: MP3, 48.0 KHz, stereo, 128kbps, 2 ch., MPEG Audio

MediaInfo

General
Complete name : D:\Salvatore Samperi (1969) XviD by Kteirby.avi
Format : AVI
Format/Info : Audio Video Interleave
File size : 723 MiB
Duration : 1h 28mn
Overall bit rate : 1 136 Kbps
Writing application : VirtualDubMod 1.5.10.3 | www.virtualdub-fr.org || (build 2550/release)
Writing library : VirtualDubMod build 2550/release
Video
ID : 0
Format : MPEG-4 Visual
Format profile : Advanced Simple@L5
Format settings, BVOP : 2
Format settings, QPel : No
Format settings, GMC : No warppoints
Format settings, Matrix : Default (H.263)
Muxing mode : Packed bitstream
Codec ID : XVID
Codec ID/Hint : XviD
Duration : 1h 28mn
Bit rate : 998 Kbps
Width : 672 pixels
Height : 378 pixels
Display aspect ratio : 16:9
Frame rate : 25.000 fps
Color space : YUV
Chroma subsampling : 4:2:0
Bit depth : 8 bits
Scan type : Progressive
Compression mode : Lossy
Bits/(Pixel*Frame) : 0.157
Stream size : 635 MiB (88%)
Writing library : XviD 1.2.1 (UTC 2008-12-04)
Audio
ID : 1
Format : MPEG Audio
Format version : Version 1
Format profile : Layer 3
Codec ID : 55
Codec ID/Hint : MP3
Duration : 1h 28mn
Bit rate mode : Constant
Bit rate : 128 Kbps
Channel(s) : 2 channels
Sampling rate : 48.0 KHz
Compression mode : Lossy
Stream size : 81.4 MiB (11%)
Alignment : Aligned on interleaves
Interleave, duration : 40 ms (1.00 video frame)
Interleave, preload duration : 504 ms
Writing library : LAME3.99r
Encoding settings : -m s -V 4 -q 2 -lowpass 17 -b 128

Скриншот c названием фильма

Скриншоты

To download the content you need:
1. Download and install torrent client [for Windows] or for mobile system
2. Click on [Download]
Attention.
If the test YOU are NOT a ROBOT - does not work, then You are using an outdated browser.
Install the current browser and click on [Download]
Security: torrent client is allowed by Kaspersky.

[en.asmlocator.ru].t3722.torrent 
Torrent: Registered [ 2015-11-29 19:36 ] · A9EAF70613B9B82513C6D9392D4DEAF93AF3F8B2

Download .torrent

Download

15 KB

Status: checked
Completed: 0 times
Size: 723 MB
terms.php
[Profile] [PM]
Display posts:    
Reply to topic

Current time is: 14-Dec 01:16

All times are UTC ± 0



You cannot post new topics in this forum
You cannot reply to topics in this forum
You cannot edit your posts in this forum
You cannot delete your posts in this forum
You cannot vote in polls in this forum
You cannot attach files in this forum
You can download files in this forum
Верим фактам, а не вранью Путина! Факт, что Правительство ведёт Россию к истреблению.
Так как численность населения падает, даже не смотря на приток эмигрантов!
Русская нация вымирает и вырождается, смешиваясь с эмигрантами!
Факт, что военных и граждан предприятий заставляют голосовать за партию Единая Россия и Путина
ПОД СТРАХОМ УВОЛЬНЕНИЯ!
Нам не нужно Правительство, блокирующее личную жизнь, интернет, нарушающее сохранность данных.
Все эти действия финансируются за счёт народа!