Посредник / The Go-Between (Джозеф Лоузи / Joseph Losey) [1971, Великобритания, драма, мелодрама, HDRip] MVO (НТВ) + Original Eng

Reply to topic
DL-List and Torrent activity
Size:  1.47 GB   |    Registered:  4 years   |    Completed:  1 time

Seeder not seen: 1 month 25 days

 
   
 
 
Author Message

star21 ®

Gender: Female

Longevity: 4 years 1 month

Posts: 551946

Location: Екатеринбург

Post 29-Nov-2015 19:39

[Quote]

Посредник / The Go-Between
Страна: Великобритания
Жанр: драма, мелодрама
Год выпуска: 1971
Продолжительность: 01:56:15
Перевод: Профессиональный (многоголосый закадровый) НТВ
Cубтитры: нет
Оригинальная аудиодорожка: английский
Режиссер: Джозеф Лоузи / Joseph Losey
В ролях: Джули Кристи, Алан Бейтс, Маргарет Лейтон, Майкл Редгрейв, Доминик Гард, Майкл Гоф, Эдвард Фокс
Описание: Англия, лето 1900 года. Лео Колстон гостит у одноклассника Маркуса Модсли, в загородном доме в Норфолке. Там он знакомится с Мэриан - старшей сестрой Маркуса. Она помолвлена с богатым и знатным Хью Тримингемом. Однажды Мэриан просит Лео отнести послание Тэду Бёрджесу - фермеру, с которым у неё тайный роман. Перипетии этой любовной истории накладывают неизгладимый отпечаток на всю последующую жизнь Лео...
"Высокопробная британская костюмная драма режиссера Джозефа Лоузи по сценарию драматурга Гарольда Пинтера с тревожной и патетической музыкальной темой композитора Мишеля Леграна – лауреат Золотой Пальмовой ветви Каннского кинофестиваля об английской аристократии начала 20 века. Драма, в которой главным становится мотив посредничества ребенка в сложных и запутанных взрослых отношениях (этот мотив позже будет успешно использован в таких фильмах, как, например, «Пианино» и «Искупление»).
Прекрасно показана атмосфера лета в усадьбе и портретно точно намечены характеры персонажей; удачно представлены первая романтическая симпатия главного героя и его общение со старшими, а также отчаянное детское любопытство и желание узнать как можно больше о мире взрослых.
Возможно только, что все несколько односложно и слегка прямолинейно, - однако психологически тонкий и атмосферный финал спустя много лет и постепенное нарастание напряжения вместе с драматически и эмоционально сильной сценой кульминационной развязки превращают «Посредника» в достойную и более чем заслуживающую внимания костюмную драму." (с)

Награды и номинации

Оскар
Номинации
1972
Лучшая женская роль второго плана
Маргарет Лейтон
Каннский кинофестиваль
Победы
1971
Золотая пальмовая ветвь
Золотой глобус
Номинации
1972
Лучший иностранный фильм на английском языке
Британская академия
Победы
1972
Лучшая мужская роль второго плана
Майкл Гоф, Эдвард Фокс
1972
Лучшая женская роль второго плана
Маргарет Лейтон
1972
Лучший новичок
Доминик Гард
1972
Лучший сценарий
Номинации
1972
Лучший фильм
1972
Лучшая женская роль
Джули Кристи
1972
Лучший режиссер
Джозеф Лоузи
1972
Лучшая работа оператора
1972
Лучший саундтрек
1972
Лучшая работа художника
1972
Лучшие костюмы
Сэмпл: http://multi-up.com/1070442
Качество видео: HDRip
Формат видео: AVI
Видео: 720x384, 24 fps, DivX 5.x/6.x, 1471 kbps, Qf 0.222
Аудио: AC3, 48000Hz, 160 kb/s, stereo (2/0) - русский
Аудио 2: AC3, 48000Hz, 160 kb/s, stereo (2/0) - английский

MediaInfo

Общее
Полное имя : D:\The.Go-Between_1971.HDRip.avi
Формат : AVI
Формат/Информация : Audio Video Interleave
Размер файла : 1,47 Гбайт
Продолжительность : 1 ч. 56 м.
Общий поток : 1805 Кбит/сек
Программа кодирования : VirtualDubModRus 1.5.10.2 (build 2542/release)
Библиотека кодирования : VirtualDubMod build 2542/release
Видео
Идентификатор : 0
Формат : MPEG-4 Visual
Профиль формата : Advanced Simple@L5
Параметр BVOP формата : 1
Параметр QPel формата : Нет
Параметр GMC формата : Без точки перехода
Параметр матрицы формата : Default (MPEG)
Идентификатор кодека : DX50
Идентификатор кодека/Подсказка : DivX 5
Продолжительность : 1 ч. 56 м.
Битрейт : 1471 Кбит/сек
Ширина : 720 пикселей
Высота : 384 пикселя
Соотношение сторон : 1,85:1
Частота кадров : 24,000 кадра/сек
Цветовое пространство : YUV
Субдискретизация насыщенности : 4:2:0
Битовая глубина : 8 бит
Тип развёртки : Прогрессивная
Метод сжатия : С потерями
Бит/(Пиксели*Кадры) : 0.222
Размер потока : 1,19 Гбайт (81%)
Библиотека кодирования : XviD 1.2.1 (UTC 2008-12-04)
Аудио #1
Идентификатор : 1
Формат : AC-3
Формат/Информация : Audio Coding 3
Расширение режима : CM (complete main)
Параметр Endianness формата : Big
Идентификатор кодека : 2000
Продолжительность : 1 ч. 56 м.
Вид битрейта : Постоянный
Битрейт : 160 Кбит/сек
Каналы : 2 канала
Расположение каналов : Front: L R
Частота : 48,0 КГц
Метод сжатия : С потерями
Размер потока : 133 Мбайт (9%)
Выравнивание : Разделение по промежуткам
Продолжительность промежутка : 42 мс. (1,00 видеокадр)
Время предзагрузки промежутка : 500 мс.
Аудио #2
Идентификатор : 2
Формат : AC-3
Формат/Информация : Audio Coding 3
Расширение режима : CM (complete main)
Параметр Endianness формата : Big
Идентификатор кодека : 2000
Продолжительность : 1 ч. 56 м.
Вид битрейта : Постоянный
Битрейт : 160 Кбит/сек
Каналы : 2 канала
Расположение каналов : Front: L R
Частота : 48,0 КГц
Метод сжатия : С потерями
Размер потока : 133 Мбайт (9%)
Выравнивание : Разделение по промежуткам
Продолжительность промежутка : 42 мс. (1,00 видеокадр)
Время предзагрузки промежутка : 500 мс.

Скриншот c названием фильма

Скриншоты

To download the content you need:
1. Download and install torrent client [for Windows] or for mobile system
2. Click on [Download]
Attention.
If the test YOU are NOT a ROBOT - does not work, then You are using an outdated browser.
Install the current browser and click on [Download]
Security: torrent client is allowed by Kaspersky.

[en.asmlocator.ru].t3721.torrent 
Torrent: Registered [ 2015-11-29 19:36 ] · 9CF4E27B1DFB3AE7AAB5BDDD3EC1824BE4B8BE40

Download .torrent

Download

15 KB

Status: checked
Completed: 1 times
Size: 1.47 GB
terms.php
[Profile] [PM]
Display posts:    
Reply to topic

Current time is: 14-Dec 20:31

All times are UTC ± 0



You cannot post new topics in this forum
You cannot reply to topics in this forum
You cannot edit your posts in this forum
You cannot delete your posts in this forum
You cannot vote in polls in this forum
You cannot attach files in this forum
You can download files in this forum
Верим фактам, а не вранью Путина! Факт, что Правительство ведёт Россию к истреблению.
Так как численность населения падает, даже не смотря на приток эмигрантов!
Русская нация вымирает и вырождается, смешиваясь с эмигрантами!
Факт, что военных и граждан предприятий заставляют голосовать за партию Единая Россия и Путина
ПОД СТРАХОМ УВОЛЬНЕНИЯ!
Нам не нужно Правительство, блокирующее личную жизнь, интернет, нарушающее сохранность данных.
Все эти действия финансируются за счёт народа!