Двойная игра / Светлячок / The Firefly (Роберт З. Леонард / Robert Z. Leonard) [1937, США, мюзикл, мелодрама, исторический, DVDRip] DVO (Светла) + Original Eng

Reply to topic
DL-List and Torrent activity
Size:  1.63 GB   |    Registered:  4 years   |    Completed:  1 time

Seeder not seen: 1 month 23 days

 
   
 
 
Author Message

star21 ®

Gender: Female

Longevity: 4 years 1 month

Posts: 551946

Location: Екатеринбург

Post 29-Nov-2015 19:39

[Quote]

Двойная игра / Светлячок / The Firefly
Страна: США
Жанр: мюзикл, мелодрама, исторический
Год выпуска: 1937
Продолжительность: 02:09:56
Перевод: профессиональный (двухголосый закадровый) - ООО "Светла"
Cубтитры: нет
Оригинальная аудиодорожка: английский
Режиссер: Роберт З. Леонард / Robert Z. Leonard
В ролях: Джанетт МакДональд / Jeanette MacDonald ... Nina Maria
Аллан Джонс / Allan Jones ... Don Diego
Уоррен Уильям / Warren William ... Major de Rouchemont
Билли Гилберт / Billy Gilbert ... Innkeeper
Дугласс Дамбрилл / Douglas Dumbrille (в титрах: Douglas Dumbrille) ... Marquis de Melito
Генри Дэниелл / Henry Daniell ... General Savary
Леонард Пенн / Leonard Penn ... Etienne
Том Рутерфорд / Tom Rutherford ... King Ferdinard
Белль Митчелл / Belle Mitchell ... Lola
Джордж Зукко / George Zucco ... Secret Service Chief
Корбет Моррис / Corbet Morris (в титрах: Corbett Morris) ... Duval
Мэттью Болтон / Matthew Boulton ... Wellington

Описание: 1808 год. Французы внезапно вторглись в Испанию. Испуганный король Карл 19 марта отрекся от престола в пользу сына и 24 марта король Фердинанд VII въехал в столицу под ликующие крики народа. Но радость жителей Мадрида была непродолжительна. Узнав о раздорах в королевском семействе, Наполеон решил воспользоваться ими в своих интересах.
Однако Маркиз де Мелито настроен предотвратить французский переворот. Он использует красавицу — шпионку, Нину Марию Азару — танцовщицу кабаре. Девушка хитра и изворотлива, чтобы избавиться от назойливого и уже обработанного ухажера француза, она оказывает знаки внимания испанцу Дону Диего. За этот флирт Дон Диего вызван на дуэль.
Тем временем Нина Мария спешит с заданием в город Байон, где должна очаровать генерала Ружемона, чтобы выведать французские планы вторжения. В пустынном ущелье её карету нагоняет влюбленный Дон Диего, готовый сопровождать прекрасную певицу хоть на край света. Красавице невдомёк, что не только пламя любви движет молодым человеком — он сам является резидентом французской разведки в Испании...
----Сэмпл: http://multi-up.com/1070419
Качество видео: DVDRip
Формат видео: AVI
Видео: XviD, 640x480 (4:3), 23.976 fps, 1405 Kbps
Аудио 1: AC3, 48.0 KHz, 2 ch., 192 Kbps (русский профессиональный двухголосый перевод) - Светла
Аудио 2: AC3, 48.0 KHz, 2 ch., 192 Kbps (оригинальная английская звуковая дорожка, лежит отдельно)
(см. "Программы для работы с контейнерами" - > "VirtualDub" или "AVI-Mux")

MediaInfo

AVI-файл:
Общее
Полное имя : K:\раздачи\The Firefly 1937 1.46\The Firefly.avi
Формат : AVI
Формат/Информация : Audio Video Interleave
Размер файла : 1,46 Гбайт
Продолжительность : 2 ч. 9 м.
Общий поток : 1606 Кбит/сек
Программа кодирования : VirtualDubMod 1.5.10.3 | www.virtualdub-fr.org || (build 2550/release)
Библиотека кодирования : VirtualDubMod build 2550/release
Видео
Идентификатор : 0
Формат : MPEG-4 Visual
Профиль формата : Advanced Simple@L5
Параметр BVOP формата : 2
Параметр QPel формата : Нет
Параметр GMC формата : Без точки перехода
Параметр матрицы формата : Default (H.263)
Идентификатор кодека : DX50
Идентификатор кодека/Подсказка : DivX 5
Продолжительность : 2 ч. 9 м.
Битрейт : 1405 Кбит/сек
Ширина : 640 пикселей
Высота : 480 пикселей
Соотношение сторон : 4:3
Частота кадров : 23,976 кадра/сек
Цветовое пространство : YUV
Субдискретизация насыщенности : 4:2:0
Битовая глубина : 8 бит
Тип развёртки : Прогрессивная
Метод сжатия : С потерями
Бит/(Пиксели*Кадры) : 0.191
Размер потока : 1,28 Гбайт (87%)
Библиотека кодирования : XviD 73
Аудио
Идентификатор : 1
Формат : AC-3
Формат/Информация : Audio Coding 3
Расширение режима : CM (complete main)
Параметр Endianness формата : Big
Идентификатор кодека : 2000
Продолжительность : 2 ч. 9 м.
Вид битрейта : Постоянный
Битрейт : 192 Кбит/сек
Каналы : 2 канала
Расположение каналов : Front: L R
Частота : 48,0 КГц
Битовая глубина : 16 бит
Метод сжатия : С потерями
Размер потока : 178 Мбайт (12%)
Выравнивание : Разделение по промежуткам
Продолжительность промежутка : 42 мс. (1,00 видеокадр)
Время предзагрузки промежутка : 500 мс.
английская оригинальная звуковая дорожка, лежит отдельно:
Общее
Полное имя : K:\раздачи\The Firefly 1937 1.46\The Firefly.ENG.ac3
Формат : AC-3
Формат/Информация : Audio Coding 3
Размер файла : 178 Мбайт
Продолжительность : 2 ч. 9 м.
Режим общего битрейта : Постоянный
Общий поток : 192 Кбит/сек
Аудио
Формат : AC-3
Формат/Информация : Audio Coding 3
Расширение режима : CM (complete main)
Параметр Endianness формата : Big
Продолжительность : 2 ч. 9 м.
Вид битрейта : Постоянный
Битрейт : 192 Кбит/сек
Каналы : 2 канала
Расположение каналов : Front: L R
Частота : 48,0 КГц
Битовая глубина : 16 бит
Метод сжатия : С потерями
Размер потока : 178 Мбайт (100%)

Исходник

To download the content you need:
1. Download and install torrent client [for Windows] or for mobile system
2. Click on [Download]
Attention.
If the test YOU are NOT a ROBOT - does not work, then You are using an outdated browser.
Install the current browser and click on [Download]
Security: torrent client is allowed by Kaspersky.

[en.asmlocator.ru].t3720.torrent 
Torrent: Registered [ 2015-11-29 19:36 ] · 9E7407C7E0BB43F617D9E280275F49268855AEBA

Download .torrent

Download

17 KB

Status: checked
Completed: 1 times
Size: 1.63 GB
terms.php
[Profile] [PM]
Display posts:    
Reply to topic

Current time is: 12-Dec 03:17

All times are UTC ± 0



You cannot post new topics in this forum
You cannot reply to topics in this forum
You cannot edit your posts in this forum
You cannot delete your posts in this forum
You cannot vote in polls in this forum
You cannot attach files in this forum
You can download files in this forum
Верим фактам, а не вранью Путина! Факт, что Правительство ведёт Россию к истреблению.
Так как численность населения падает, даже не смотря на приток эмигрантов!
Русская нация вымирает и вырождается, смешиваясь с эмигрантами!
Факт, что военных и граждан предприятий заставляют голосовать за партию Единая Россия и Путина
ПОД СТРАХОМ УВОЛЬНЕНИЯ!
Нам не нужно Правительство, блокирующее личную жизнь, интернет, нарушающее сохранность данных.
Все эти действия финансируются за счёт народа!