Немного солнца в холодной воде / Un peu de soleil dans l\'eau froide / A Few Hours of Sunlight (Жак Дере / Jacques Deray) [1971, Франция, Италия, драма, мелодрама, DVDRip] DVO

Reply to topic
DL-List and Torrent activity
Size:  745 MB   |    Registered:  4 years   |    Completed:  0 times

Seeder not seen: Never

 
   
 
 
Author Message

star21 ®

Gender: Female

Longevity: 4 years 1 month

Posts: 551946

Location: Екатеринбург

Post 29-Nov-2015 19:38

[Quote]

Немного солнца в холодной воде / Un peu de soleil dans l'eau froide / A Few Hours of Sunlight
Страна: Франция, Италия
Жанр: драма, мелодрама
Год выпуска: 1971
Продолжительность: 01:45:56
Перевод: Профессиональный (двухголосый закадровый)
Cубтитры: нет
Режиссер: Жак Дере /Jacques Deray
В ролях: Клодин Оже, Марк Порель, Жюдит Магр, Барбара Бах, Андре Фалькон, Жан-Клод Карьер, Надин Алари, Жерар Депардье, Марк Эйро, Жак Дебари
Описание: У молодого француза Жиля хорошая работа, хорошая зарплата и симпатичная любовница-американка, а о создании своей семьи Жиль пока еще не задумывается. Но он все чаще впадает в состояние сильной депрессии… Однажды он отправился в провинцию, чтобы навестить сестру. И здесь, в «деревенской глуши», Жиль неожиданно влюбился в женщину. Она старше Жиля, но разве это препятствие, если вихрь страсти закружил обоих?..
Доп. информация: За спасибо .
Сэмпл: http://multi-up.com/1071059

Качество видео: DVDRip -
Формат видео: AVI
Видео: 560x336 (1.67:1), 25 fps, XviD, 845 kbps, 0.18 bit/pixel
Аудио: 48 kHz, MPEG Layer 3, 2 ch, 128.00 kbps, DVO

MediaInfo

Общее
Полное имя : E:\Раздачи\rutracker.org\Nemnogo_solntsa_v_holodnoi_vode_745_by_max1wq.avi
Формат : AVI
Формат/Информация : Audio Video Interleave
Размер файла : 745 Мбайт
Продолжительность : 1 ч. 45 м.
Общий поток : 983 Кбит/сек
Программа кодирования : VirtualDubMod 1.5.10.2 (build 2540/release)
Библиотека кодирования : VirtualDubMod build 2540/release
Видео
Идентификатор : 0
Формат : MPEG-4 Visual
Профиль формата : Advanced Simple@L5
Параметр BVOP формата : 1
Параметр QPel формата : Нет
Параметр GMC формата : Без точки перехода
Параметр матрицы формата : Выборочная
Идентификатор кодека : XVID
Идентификатор кодека/Подсказка : XviD
Продолжительность : 1 ч. 45 м.
Битрейт : 845 Кбит/сек
Ширина : 560 пикселей
Высота : 336 пикселей
Соотношение сторон : 5:3
Частота кадров : 25,000 кадров/сек
Цветовое пространство : YUV
Субдискретизация насыщенности : 4:2:0
Битовая глубина : 8 бит
Тип развёртки : Прогрессивная
Метод сжатия : С потерями
Бит/(Пиксели*Кадры) : 0.180
Размер потока : 641 Мбайт (86%)
Библиотека кодирования : XviD 73
Аудио
Идентификатор : 1
Формат : MPEG Audio
Версия формата : Version 1
Профиль формата : Layer 3
Идентификатор кодека : 55
Идентификатор кодека/Подсказка : MP3
Продолжительность : 1 ч. 45 м.
Вид битрейта : Постоянный
Битрейт : 128 Кбит/сек
Каналы : 2 канала
Частота : 48,0 КГц
Метод сжатия : С потерями
Размер потока : 97,0 Мбайт (13%)
Выравнивание : Соединение по промежуткам
Продолжительность промежутка : 40 мс. (1,00 видеокадр)
Время предзагрузки промежутка : 504 мс.

To download the content you need:
1. Download and install torrent client [for Windows] or for mobile system
2. Click on [Download]
Attention.
If the test YOU are NOT a ROBOT - does not work, then You are using an outdated browser.
Install the current browser and click on [Download]
Security: torrent client is allowed by Kaspersky.

[en.asmlocator.ru].t3713.torrent 
Torrent: Registered [ 2015-11-29 19:36 ] · BA9D4364CBAD33588FA9D39DE15FE1B644108F31

Download .torrent

Download

15 KB

Status: checked
Completed: 0 times
Size: 745 MB
terms.php
[Profile] [PM]
Display posts:    
Reply to topic

Current time is: 12-Dec 19:41

All times are UTC ± 0



You cannot post new topics in this forum
You cannot reply to topics in this forum
You cannot edit your posts in this forum
You cannot delete your posts in this forum
You cannot vote in polls in this forum
You cannot attach files in this forum
You can download files in this forum
Верим фактам, а не вранью Путина! Факт, что Правительство ведёт Россию к истреблению.
Так как численность населения падает, даже не смотря на приток эмигрантов!
Русская нация вымирает и вырождается, смешиваясь с эмигрантами!
Факт, что военных и граждан предприятий заставляют голосовать за партию Единая Россия и Путина
ПОД СТРАХОМ УВОЛЬНЕНИЯ!
Нам не нужно Правительство, блокирующее личную жизнь, интернет, нарушающее сохранность данных.
Все эти действия финансируются за счёт народа!