Любовники Вероны / Les amants de Vérone / The Lovers of Verona (Андре Кайат / André Cayatte) [1948, Франция, Драма, HDRip-AVC] MVO + Sub Eng + Original Fre

Reply to topic
DL-List and Torrent activity
Size:  1.47 GB   |    Registered:  4 years   |    Completed:  0 times

Seeder not seen: Never

 
   
 
 
Author Message

star21 ®

Gender: Female

Longevity: 4 years 1 month

Posts: 551946

Location: Екатеринбург

Post 29-Nov-2015 19:38

[Quote]

Любовники Вероны / Les amants de Vérone / The Lovers of Verona
Жанр: Драма
Страна: Франция
Студия: Compagnie Industrielle et Commerciale Cinématographique (CICC)
Год выпуска: 1948
Продолжительность: 01:47:18
Перевод: Профессиональный (многоголосый закадровый)
Cубтитры: английские
Оригинальная аудиодорожка: французский
Режиссер: Андре Кайат / André Cayatte
В ролях:
Серж Реджани / Serge Reggiani ... Angelo (Romeo)
Анук Эме / Anouk Aimée ... Georgia Maglia (Juliette)
Пьер Брассёр / Pierre Brasseur ... Raffaele
Луи Салу / Louis Salou ... Ettore Maglia
Мартина Кароль / Martine Carol ... Bettina Verdi
Ролан Армонтель / Roland Armontel ... Blanchini
Шарль Дешамп / Charles Dechamps ... Sandrini
Рене Женен / René Génin ... Le gardien du tombeau
Соланж Сикард / Solange Sicard ... Luccia Maglia
Клоди Карте / Claudye Carter ... Clio
Марсель Перес / Marcel Pérès ... Domini
Ги Фавьер / Guy Favières ... Le grand-père
Фредерик О’Брэди / Frédéric O'Brady ... Un tueur
Макс Дальбан / Max Dalban ... Un tueur
Шарль Блаветт / Charles Blavette ... Le patron de la verrerie
Филипп Лемэр / Philippe Lemaire ... Benedetti
Описание: По мотивам пьесы Уильяма Шекспира (William Shakespeare) "Romeo and Juliet".
Послевоенная Италия. В Вероне и Венеции снимают фильм по трагедии У. Шекспира "Ромео и Джульетта" с рабочим названием "Любовники Вероны". В процессе съемок актерам потребовались дублёры. Актер, играющий Ромео, страдает головокружением и не может подниматься по веревочной лестнице. Актриса, играющая Джульетту пригласила статистку для сцен, которые снимают под ярким освещением. Так на съемки фильма попали молодой стеклодув Анжело и юная Жоржия Малья - дочь опального прокурора времен Муссолини. Неожиданно, события "за кадром" начинают напоминать события, происходившие в знаменитой драме Шекспира...
Дополнительная информация:
Автор рипа: pmv
Исходник найден в сети.
Большое Спасибо за:
- русскую многоголосую озвучку - and70311448
IMDb = 6,9/10 from 132 users - [imdb]http://www.imdb.com/title/tt0040090[/imdb]
Кинопоиск = 7.667 (8) - http://www.kinopoisk.ru/film/19364/
ПРОСЬБА к СКАЧАВШИМ. НЕ УХОДИТЕ С РАЗДАЧИ, ПОМОГИТЕ ДРУГИМ СКАЧАТЬ!!!
ВНИМАНИЕ!!! РИП ФОРМАТА mkv (кодек H.264) ВОСПРОИЗВОДИТСЯ НЕ НА ВСЕХ БЫТОВЫХ ВИДЕОПЛЕЕРАХ!!!
Сэмпл: http://multi-up.com/1071206
Качество видео: HDRip-AVC
Формат видео: MKV
Видео: AVC (H264), 720@784x576 (4:3), 23.98fps, 1 534 Kbps, 0.154 Bits/Pixel
Аудио #1: AC3, 48 KHz, stereo (2 ch), 192.00 kbps – русский
Аудио #2: AC3, 48 KHz, stereo (2 ch), 192.00 kbps – французский

MediaInfo

General
Complete name : D:\torrents\Les Amants De Verone (1949, rus_MVO+fre+eng_sub).mkv
Format : Matroska
File size : 1.47 GiB
Duration : 1h 47mn
Overall bit rate : 1 957 Kbps
Encoded date : UTC 2015-10-13 16:02:28
Writing application : mkvmerge v8.4.0 ('A better way to fly') 64bit
Writing library : libebml v1.3.1 + libmatroska v1.4.2
Video
ID : 1
Format : AVC
Format/Info : Advanced Video Codec
Format profile : High@L4.1
Format settings, CABAC : Yes
Format settings, ReFrames : 16 frames
Muxing mode : Container profile=Unknown@4.1
Codec ID : V_MPEG4/ISO/AVC
Duration : 1h 47mn
Bit rate : 1 534 Kbps
Nominal bit rate : 1 570 Kbps
Width : 720 pixels
Height : 576 pixels
Display aspect ratio : 4:3
Original display aspect ratio : 5:4
Frame rate : 23.976 fps
Standard : PAL
Resolution : 8 bits
Colorimetry : 4:2:0
Scan type : Progressive
Bits/(Pixel*Frame) : 0.154
Stream size : 1.15 GiB (78%)
Writing library : x264 core 146 r2538 121396c
Encoding settings : cabac=1 / ref=16 / deblock=1:0:0 / analyse=0x3:0x133 / me=umh / subme=10 / psy=1 / psy_rd=1.00:0.00 / mixed_ref=1 / me_range=24 / chroma_me=1 / trellis=2 / 8x8dct=1 / cqm=0 / deadzone=21,11 / fast_pskip=1 / chroma_qp_offset=-2 / threads=30 / lookahead_threads=4 / sliced_threads=0 / nr=0 / decimate=1 / interlaced=0 / bluray_compat=0 / constrained_intra=0 / bframes=8 / b_pyramid=2 / b_adapt=2 / b_bias=0 / direct=3 / weightb=1 / open_gop=0 / weightp=2 / keyint=250 / keyint_min=23 / scenecut=40 / intra_refresh=0 / rc_lookahead=60 / rc=2pass / mbtree=1 / bitrate=1570 / ratetol=1.0 / qcomp=0.60 / qpmin=0 / qpmax=69 / qpstep=4 / cplxblur=20.0 / qblur=0.5 / ip_ratio=1.40 / aq=1:1.00
Audio #1
ID : 2
Format : AC-3
Format/Info : Audio Coding 3
Codec ID : A_AC3
Duration : 1h 47mn
Bit rate mode : Constant
Bit rate : 192 Kbps
Channel(s) : 2 channels
Channel positions : Front: L R
Sampling rate : 48.0 KHz
Video delay : 2ms
Stream size : 147 MiB (10%)
Language : Russian
Audio #2
ID : 3
Format : AC-3
Format/Info : Audio Coding 3
Codec ID : A_AC3
Duration : 1h 47mn
Bit rate mode : Constant
Bit rate : 192 Kbps
Channel(s) : 2 channels
Channel positions : Front: L R
Sampling rate : 48.0 KHz
Video delay : 2ms
Stream size : 147 MiB (10%)
Language : French
Text
ID : 4
Format : VobSub
Muxing mode : zlib
Codec ID : S_VOBSUB
Codec ID/Info : The same subtitle format used on DVDs
Language : English
Default : Yes
Forced : No

Скриншот c названием фильма

Сравнение с раздачей Xamasas от 01-Декабря-2014

Xamasas, VHSRip, 640 x 464, 1.57 Gb < > CaCa48, HDRip, 784 x 576, 1.47 Gb
http://screenshotcomparison.com/comparison/146637
МОИ РАЗДАЧИ НА РУТРЕКЕРЕ:

To download the content you need:
1. Download and install torrent client [for Windows] or for mobile system
2. Click on [Download]
Attention.
If the test YOU are NOT a ROBOT - does not work, then You are using an outdated browser.
Install the current browser and click on [Download]
Security: torrent client is allowed by Kaspersky.

[en.asmlocator.ru].t3712.torrent 
Torrent: Registered [ 2015-11-29 19:36 ] · AF206F8A2ED6B5C3249F019FCACDAC2D2D30DEC8

Download .torrent

Download

15 KB

Status: checked
Completed: 0 times
Size: 1.47 GB
terms.php
[Profile] [PM]
Display posts:    
Reply to topic

Current time is: 13-Dec 23:04

All times are UTC ± 0



You cannot post new topics in this forum
You cannot reply to topics in this forum
You cannot edit your posts in this forum
You cannot delete your posts in this forum
You cannot vote in polls in this forum
You cannot attach files in this forum
You can download files in this forum
Верим фактам, а не вранью Путина! Факт, что Правительство ведёт Россию к истреблению.
Так как численность населения падает, даже не смотря на приток эмигрантов!
Русская нация вымирает и вырождается, смешиваясь с эмигрантами!
Факт, что военных и граждан предприятий заставляют голосовать за партию Единая Россия и Путина
ПОД СТРАХОМ УВОЛЬНЕНИЯ!
Нам не нужно Правительство, блокирующее личную жизнь, интернет, нарушающее сохранность данных.
Все эти действия финансируются за счёт народа!