Рассвет в Сокорро / Dawn at Socorro (Джордж Шерман / George Sherman) [1954, США, вестерн, DVDRip] DVO + Sub Rus + Original Eng

Reply to topic
DL-List and Torrent activity
Size:  735 MB   |    Registered:  4 years   |    Completed:  0 times

Seeder not seen: Never

 
   
 
 
Author Message

star21 ®

Gender: Female

Longevity: 4 years 1 month

Posts: 551946

Location: Екатеринбург

Post 29-Nov-2015 19:38

[Quote]

--Рассвет в Сокорро / Dawn at Socorro-- Страна: США
Жанр: вестерн
Год выпуска: 1954
Продолжительность: 01:20:59-Перевод: Любительский (двухголосый закадровый)
Cубтитры: русские
Оригинальная аудиодорожка: английский-Режиссер: Джордж Шерман / George Sherman-В ролях: Рори Кэлхун, Пайпер Лори, Дэвид Брайан, Ли Ван Клиф, Кэтлин Хьюз, Алекс Николь, Эдгар Баканан, Мара Кордей, Рой Робертс, Скип Хомейер, Джеймс Милликэн-Описание: Бретт Вэйд, опытный игрок и стрелок, вынужден покинуть Нью Мексико, чтобы залечить старые раны в Колорадо Спрингс. Однако прошлое не отпускает его. Вэйд пробивает дорогу по трупам врагов, после каждой перестрелки давая зарок более никогда не применять револьвер. На своём пути он встречает милую девушку Ронну, находящуюся на жизненном перепутье. Вэйд рискует всем, что у него есть, лишь бы Ронна не пошла по кривой дорожке.-Доп. информация:
Перевод: Свен Железнов
Редакция перевода: Алексей Alassea Крюков
Закадровый текст: DeadSno и den904
Релиз подготовил: Skyns61
Фильм переведен и озвучен специально для 7букв Вестерн группы Джесси Джеймса
- [imdb]http://www.imdb.com/title/tt0046894[/imdb] -Качество видео: DVDRip
Формат видео: AVI
Видео: 608x416 (1.46:1), 23.976 fps, XviD build 73 ~998 kbps avg, 0.16 bit/pixel
Аудио rus: 48 kHz, MPEG Layer 3, 2 ch, ~128.00 kbps avg
Аудио eng: 48 kHz, MPEG Layer 3, 2 ch, ~128.00 kbps avg
Формат субтитров: softsub (SRT)

MediaInfo

Общее
Полное имя : F:\Films\Dawn.at.Socorro.1954\Dawn.at.Socorro.1954.avi
Формат : AVI
Формат/Информация : Audio Video Interleave
Размер файла : 735 Мбайт
Продолжительность : 1 ч. 20 м.
Общий поток : 1270 Кбит/сек
Программа кодирования : VirtualDubMod 1.5.10.3 (build 2550/release)
Библиотека кодирования : VirtualDubMod build 2550/release
Видео
Идентификатор : 0
Формат : MPEG-4 Visual
Профиль формата : Advanced Simple@L5
Параметр BVOP формата : 2
Параметр QPel формата : Нет
Параметр GMC формата : Без точки перехода
Параметр матрицы формата : Default (MPEG)
Идентификатор кодека : XVID
Идентификатор кодека/Подсказка : XviD
Продолжительность : 1 ч. 20 м.
Битрейт : 1000 Кбит/сек
Ширина : 608 пикселей
Высота : 416 пикселей
Соотношение сторон : 3:2
Частота кадров : 23,976 кадра/сек
Цветовое пространство : YUV
Субдискретизация насыщенности : 4:2:0
Битовая глубина : 8 бит
Тип развёртки : Прогрессивная
Метод сжатия : С потерями
Бит/(Пиксели*Кадры) : 0.165
Размер потока : 579 Мбайт (79%)
Библиотека кодирования : XviD 73
Аудио #1
Идентификатор : 1
Формат : MPEG Audio
Версия формата : Version 1
Профиль формата : Layer 3
Режим : Joint stereo
Расширение режима : MS Stereo
Идентификатор кодека : 55
Идентификатор кодека/Подсказка : MP3
Продолжительность : 1 ч. 20 м.
Вид битрейта : Постоянный
Битрейт : 128 Кбит/сек
Каналы : 2 канала
Частота : 48,0 КГц
Метод сжатия : С потерями
Размер потока : 74,1 Мбайт (10%)
Выравнивание : Соединение по промежуткам
Продолжительность промежутка : 42 мс. (1,00 видеокадр)
Время предзагрузки промежутка : 504 мс.
Аудио #2
Идентификатор : 2
Формат : MPEG Audio
Версия формата : Version 1
Профиль формата : Layer 3
Режим : Joint stereo
Расширение режима : MS Stereo
Идентификатор кодека : 55
Идентификатор кодека/Подсказка : MP3
Продолжительность : 1 ч. 20 м.
Вид битрейта : Постоянный
Битрейт : 128 Кбит/сек
Каналы : 2 канала
Частота : 48,0 КГц
Метод сжатия : С потерями
Размер потока : 74,1 Мбайт (10%)
Выравнивание : Соединение по промежуткам
Продолжительность промежутка : 42 мс. (1,00 видеокадр)
Время предзагрузки промежутка : 504 мс.

Скриншот c названием фильма

Скриншоты

To download the content you need:
1. Download and install torrent client [for Windows] or for mobile system
2. Click on [Download]
Attention.
If the test YOU are NOT a ROBOT - does not work, then You are using an outdated browser.
Install the current browser and click on [Download]
Security: torrent client is allowed by Kaspersky.

[en.asmlocator.ru].t3706.torrent 
Torrent: Registered [ 2015-11-29 19:36 ] · 51ED0376BF83AB193AA73A771B6A39131F9A68BC

Download .torrent

Download

15 KB

Status: checked
Completed: 0 times
Size: 735 MB
terms.php
[Profile] [PM]
Display posts:    
Reply to topic

Current time is: 05-Dec 14:18

All times are UTC ± 0



You cannot post new topics in this forum
You cannot reply to topics in this forum
You cannot edit your posts in this forum
You cannot delete your posts in this forum
You cannot vote in polls in this forum
You cannot attach files in this forum
You can download files in this forum
Верим фактам, а не вранью Путина! Факт, что Правительство ведёт Россию к истреблению.
Так как численность населения падает, даже не смотря на приток эмигрантов!
Русская нация вымирает и вырождается, смешиваясь с эмигрантами!
Факт, что военных и граждан предприятий заставляют голосовать за партию Единая Россия и Путина
ПОД СТРАХОМ УВОЛЬНЕНИЯ!
Нам не нужно Правительство, блокирующее личную жизнь, интернет, нарушающее сохранность данных.
Все эти действия финансируются за счёт народа!