Через тернии к звездам / Путь к звездам / The Way to the Stars (Энтони Эсквит / Anthony Asquith) [1945, Великобритания, драма, мелодрама, военный, DVDRip] VO (Дмитрий Есарев) + Original Eng

Reply to topic
DL-List and Torrent activity
Size:  1.6 GB   |    Registered:  4 years   |    Completed:  0 times

Seeder not seen: Never

 
   
 
 
Author Message

star21 ®

Gender: Female

Longevity: 4 years 1 month

Posts: 551946

Location: Екатеринбург

Post 29-Nov-2015 19:38

[Quote]

Через тернии к звездам / Путь к звездам / The Way to the Stars
Страна: Великобритания
Жанр: драма, мелодрама, военный
Год выпуска: 1945
Продолжительность: 01:44:08
Перевод: Одноголосый закадровый -
Cубтитры: нет
Оригинальная аудиодорожка: английский
Режиссер: Энтони Эсквит / Anthony Asquith
Композитор: Николас Бродский / Nicholas Brodszky,
Чарльз Уильямс / Charles Williams

В ролях: Майкл Редгрейв / Michael Redgrave ... David Archdale
Джон Миллз / John Mills ... Peter Penrose
Розамунд Джон / Rosamund John ... Miss Todd
Дугласс Монтгомери / Douglass Montgomery ... Johnny Hollis
Рене Эшерсон / Renée Asherson (в титрах: Renee Asherson) ... Iris Winterton
Стэнли Холлоуэй / Stanley Holloway ... Mr Palmer
Бэзил Рэдфорд / Basil Radford ... Tiny Williams
Феликс Эйлмер / Felix Aylmer ... Rev. Charles Moss
Бонар Коллеано / Bonar Colleano (в титрах: Bonar Colleano Jnr) ... Joe Friselli
Джойс Кэри / Joyce Carey ... Miss Winterton

Тревор Ховард / Trevor Howard ... Sq / Leader Carter
Николас Стюарт / Nicholas Stuart (в титрах: Tryon Nichol) ... Col. Rogers
Билл Оуэн / Bill Owen (в титрах: Bill Rowbotham) ... «Nobby» Clarke
Грант Миллер / Grant Miller ... Wally Becker

Джин Симмонс / Jean Simmons ... A Singer
Джонни Скофилд / Johnnie Schofield ... Jones
Вида Хоуп / Vida Hope ... Elsie
Энтони Доусон / Anthony Dawson ... Bertie Steen
Мюррэй Мэтисон / Murray Matheson ... Joe Lawson
Джон МакЛарен / John McLaren ... «Cheerio» Chester

Описание: Офицер Питер Пенроуз начинает службу в подразделении бомбардировщиков и проходит путь от новичка до опытного лётчика. Он влюбляется в молодую девушку Айрис, которая живёт в отеле недалеко от военной базы. Но Питер не решается попросить руки Айрис, зная, что в любой момент может погибнуть, тем самым обрекая её на горькую участь вдовы...--БОЛЬШОЕ СПАСИБО:
Работа со звуком и реавторинг DVD -
Перевод и озвучивание фильма -
Также Большое Спасибо всем, кто принял участие в появлении озвучки к этому фильму:
Магда, Lafajet, jasenka, елена 22, yanaelisa, atomic dragonfly, old76, HippopotamusIV, surzhoks, Ugo927, sveta_pula, erfv, cementit, mumzik69, борюська, Simpun, Patsy+, voostorg
----Сэмпл: http://multi-up.com/1071568
Качество видео: DVDRip
Формат видео: AVI
Видео: XviD, 704x528 (4:3), 25 fps, 1800 Kbps
Аудио 1: AC3, 48.0 KHz, 2 ch., 192 Kbps (русский одноголосый закадровый перевод) - Дмитрий Есарев
Аудио 2: AC3, 48.0 KHz, 2 ch., 192 Kbps (оригинальная английская звуковая дорожка, лежит отдельно)
(см. "Программы для работы с контейнерами" - > "VirtualDub" или "AVI-Mux")

MediaInfo

AVI-файл:
Общее
Полное имя : K:\раздачи\The Way to the Stars 1945\The Way to the Stars.avi
Формат : AVI
Формат/Информация : Audio Video Interleave
Размер файла : 1,46 Гбайт
Продолжительность : 1 ч. 44 м.
Общий поток : 2002 Кбит/сек
Программа кодирования : VirtualDubMod 1.5.10.3 | www.virtualdub-fr.org || (build 2550/release)
Библиотека кодирования : VirtualDubMod build 2550/release
Видео
Идентификатор : 0
Формат : MPEG-4 Visual
Профиль формата : Advanced Simple@L5
Параметр BVOP формата : 2
Параметр QPel формата : Нет
Параметр GMC формата : Без точки перехода
Параметр матрицы формата : Default (H.263)
Идентификатор кодека : DX50
Идентификатор кодека/Подсказка : DivX 5
Продолжительность : 1 ч. 44 м.
Битрейт : 1800 Кбит/сек
Ширина : 704 пикселя
Высота : 528 пикселей
Соотношение сторон : 4:3
Частота кадров : 25,000 кадров/сек
Цветовое пространство : YUV
Субдискретизация насыщенности : 4:2:0
Битовая глубина : 8 бит
Тип развёртки : Прогрессивная
Метод сжатия : С потерями
Бит/(Пиксели*Кадры) : 0.194
Размер потока : 1,31 Гбайт (90%)
Библиотека кодирования : XviD 73
Аудио
Идентификатор : 1
Формат : AC-3
Формат/Информация : Audio Coding 3
Расширение режима : CM (complete main)
Параметр Endianness формата : Big
Идентификатор кодека : 2000
Продолжительность : 1 ч. 44 м.
Вид битрейта : Постоянный
Битрейт : 192 Кбит/сек
Каналы : 2 канала
Расположение каналов : Front: L R
Частота : 48,0 КГц
Битовая глубина : 16 бит
Метод сжатия : С потерями
Размер потока : 143 Мбайт (10%)
Выравнивание : Разделение по промежуткам
Продолжительность промежутка : 40 мс. (1,00 видеокадр)
Время предзагрузки промежутка : 500 мс.
английская оригинальная звуковая дорожка, лежит отдельно:
Общее
Полное имя : K:\раздачи\The Way to the Stars 1945\The Way to the Stars.ENG.ac3
Формат : AC-3
Формат/Информация : Audio Coding 3
Размер файла : 143 Мбайт
Продолжительность : 1 ч. 44 м.
Режим общего битрейта : Постоянный
Общий поток : 192 Кбит/сек
Аудио
Формат : AC-3
Формат/Информация : Audio Coding 3
Расширение режима : CM (complete main)
Параметр Endianness формата : Big
Продолжительность : 1 ч. 44 м.
Вид битрейта : Постоянный
Битрейт : 192 Кбит/сек
Каналы : 2 канала
Расположение каналов : Front: L R
Частота : 48,0 КГц
Битовая глубина : 16 бит
Метод сжатия : С потерями
Размер потока : 143 Мбайт (100%)

Исходник

To download the content you need:
1. Download and install torrent client [for Windows] or for mobile system
2. Click on [Download]
Attention.
If the test YOU are NOT a ROBOT - does not work, then You are using an outdated browser.
Install the current browser and click on [Download]
Security: torrent client is allowed by Kaspersky.

[en.asmlocator.ru].t3703.torrent 
Torrent: Registered [ 2015-11-29 19:36 ] · EA6EF650E888A52FE010F5CB9CB90BAB3B6E0B7E

Download .torrent

Download

17 KB

Status: checked
Completed: 0 times
Size: 1.6 GB
terms.php
[Profile] [PM]
Display posts:    
Reply to topic

Current time is: 09-Dec 05:52

All times are UTC ± 0



You cannot post new topics in this forum
You cannot reply to topics in this forum
You cannot edit your posts in this forum
You cannot delete your posts in this forum
You cannot vote in polls in this forum
You cannot attach files in this forum
You can download files in this forum
Верим фактам, а не вранью Путина! Факт, что Правительство ведёт Россию к истреблению.
Так как численность населения падает, даже не смотря на приток эмигрантов!
Русская нация вымирает и вырождается, смешиваясь с эмигрантами!
Факт, что военных и граждан предприятий заставляют голосовать за партию Единая Россия и Путина
ПОД СТРАХОМ УВОЛЬНЕНИЯ!
Нам не нужно Правительство, блокирующее личную жизнь, интернет, нарушающее сохранность данных.
Все эти действия финансируются за счёт народа!