Бомбардир / Bombardier (Ричард Уоллес, Ламберт Хилльер / Richard Wallace, Lambert Hillyer) [1943, США, Военный, драма, DVDRip] VO (den904)

Reply to topic
DL-List and Torrent activity
Size:  1.45 GB   |    Registered:  4 years   |    Completed:  0 times

Seeder not seen: Never

 
   
 
 
Author Message

star21 ®

Gender: Female

Longevity: 4 years 1 month

Posts: 551946

Location: Екатеринбург

Post 29-Nov-2015 19:38

[Quote]

Бомбардир / Bombardier
Страна: США
Жанр: Военный, драма
Год выпуска: 1943
Продолжительность: 01:39:17
Перевод: Одноголосый закадровый (den904) по субтитрам (lobo)
Cубтитры: нет
Режиссер: Ричард Уоллес, Ламберт Хилльер / Richard Wallace, Lambert Hillyer
В ролях: Юджин Л. Юбэнк, Пэт О’Брайен, Рэндольф Скотт, Энн Ширли, Эдди Альберт, Уолтер Рид, Роберт Райан, Бартон МакЛэйн, Леонард Стронг, Ричард Мартин.
Описание: Майор Чик Дэвис демонстрирует армии США достоинства высотного прицельного бомбометания, с помощью нового высокотехнологичного прицела, а так же организовывает школу бомбардиров. Тренировки показаны в полудокументальном стиле, скрашенном драматическими моментами из личной жизни и учебных будней курсантов. Фильм завершается настоящим боевым вылетом в Нагою (Япония), в ответ на нападение на Перл-Харбор.
Доп. информация: DVDRip by alf62
Большое СПАСИБО за работу над фильмом целому коллективу:
- за перевод субтитров: lobo;
- за озвучивание: den904;
- инициаторам перевода: alinto, умелец54, Drenkens, duum100, Магда;
- за работу со звуком: Нордер;
- за первоисточник DVD: alinto:
Перевод: Любительский одноголосый (den904)

Качество видео: DVDRip
Формат видео: AVI
Видео: 640x480 (1.33:1), 23.976 fps, XviD build 73 ~1887 kbps avg, 0.26 bit/pixel
Аудио: 48 kHz, AC3 Dolby Digital, 2/0 (L,R) ch, ~192.00 kbps avg

MediaInfo

Бомбардир.1943.XviD.DVD.Rip.alf62.avi
Формат : AVI
Формат/Информация : Audio Video Interleave
Размер файла : 1,45 Гбайт
Продолжительность : 1 ч. 39 м.
Общий поток : 2089 Кбит/сек
Программа кодирования : VirtualDubMod 1.5.10.3 | www.virtualdub-fr.org || (build 2550/release)
Библиотека кодирования : VirtualDubMod build 2550/release
Видео
Идентификатор : 0
Формат : MPEG-4 Visual
Профиль формата : Advanced Simple@L5
Параметр BVOP формата : 2
Параметр QPel формата : Нет
Параметр GMC формата : Без точки перехода
Параметр матрицы формата : Default (MPEG)
Идентификатор кодека : XVID
Идентификатор кодека/Подсказка : XviD
Продолжительность : 1 ч. 39 м.
Битрейт : 1888 Кбит/сек
Ширина : 640 пикселей
Высота : 480 пикселей
Соотношение сторон : 4:3
Частота кадров : 23,976 кадра/сек
Цветовое пространство : YUV
Субдискретизация насыщенности : 4:2:0
Битовая глубина : 8 бит
Тип развёртки : Прогрессивная
Метод сжатия : С потерями
Бит/(Пиксели*Кадры) : 0.256
Размер потока : 1,31 Гбайт (90%)
Библиотека кодирования : XviD 73
Аудио
Идентификатор : 1
Формат : AC-3
Формат/Информация : Audio Coding 3
Расширение режима : CM (complete main)
Параметр Endianness формата : Big
Идентификатор кодека : 2000
Продолжительность : 1 ч. 39 м.
Вид битрейта : Постоянный
Битрейт : 192 Кбит/сек
Каналы : 2 канала
Расположение каналов : Front: L R
Частота : 48,0 КГц
Битовая глубина : 16 бит
Метод сжатия : С потерями
Размер потока : 136 Мбайт (9%)
Выравнивание : Разделение по промежуткам
Продолжительность промежутка : 42 мс. (1,00 видеокадр)
Время предзагрузки промежутка : 500 мс.

Скриншот c названием фильма

To download the content you need:
1. Download and install torrent client [for Windows] or for mobile system
2. Click on [Download]
Attention.
If the test YOU are NOT a ROBOT - does not work, then You are using an outdated browser.
Install the current browser and click on [Download]
Security: torrent client is allowed by Kaspersky.

[en.asmlocator.ru].t3696.torrent 
Torrent: Registered [ 2015-11-29 19:36 ] · 46A5FB540CDB5C9DD700D073FF634CE79F6E9596

Download .torrent

Download

15 KB

Status: checked
Completed: 0 times
Size: 1.45 GB
terms.php
[Profile] [PM]
Display posts:    
Reply to topic

Current time is: 12-Dec 02:43

All times are UTC ± 0



You cannot post new topics in this forum
You cannot reply to topics in this forum
You cannot edit your posts in this forum
You cannot delete your posts in this forum
You cannot vote in polls in this forum
You cannot attach files in this forum
You can download files in this forum
Верим фактам, а не вранью Путина! Факт, что Правительство ведёт Россию к истреблению.
Так как численность населения падает, даже не смотря на приток эмигрантов!
Русская нация вымирает и вырождается, смешиваясь с эмигрантами!
Факт, что военных и граждан предприятий заставляют голосовать за партию Единая Россия и Путина
ПОД СТРАХОМ УВОЛЬНЕНИЯ!
Нам не нужно Правительство, блокирующее личную жизнь, интернет, нарушающее сохранность данных.
Все эти действия финансируются за счёт народа!