Вечное море / The Eternal Sea (Джон Х. Ауэр / John H. Auer) [1955, США, военный, драма, BDRip] VO (В. Воронцов / Доцент)

Reply to topic
DL-List and Torrent activity
Size:  1.43 GB   |    Registered:  4 years   |    Completed:  0 times

Seeder not seen: 1 year 3 months

 
   
 
 
Author Message

star21 ®

Gender: Female

Longevity: 4 years 1 month

Posts: 551946

Location: Екатеринбург

Post 29-Nov-2015 19:38

[Quote]

Вечное море / The Eternal Sea
Страна: США
Жанр: военный, драма
Год выпуска: 1955
Продолжительность: 01:43:08
Перевод: Одноголосый закадровый В. Воронцов (Доцент)
Cубтитры: нет
Режиссер: Джон Х. Ауэр / John H. Auer
В ролях: Стерлинг Хейден, Алексис Смит, Бен Купер, Дин Джэггер, Вирджиния Грей, Хейден Рорк, Дуглас Кеннеди, Луис Жан Хейдт, Ричард Крэйн, Моррис Анкрум.
Описание: Вечное море - драматическое биографическое повествование об адмирале Джоне М. Хоскинсе, который во время Второй Мировой Войны вел личное сражение с власть имущими за возможность продолжить службу на флоте. Препятствием к этому служила военная травма, лишившая его ноги, а главной опорой адмирала была его жена Сью (Алексис Смит), дарившая ему любовь и верность.
Доп. информация: Авторство релиза - alf62
Большое спасибо:
- инициаторам перевода: alinto, jasenka, surzhoks, gelom, Cybernn, Simpun, exact, duum100, lafajet, Drenkens, milka131, Arias, leoder;
- за наложение чистого голоса на оригинальную дорогу: zavin;
- за предоставленный источник для релиза: alinto:

Качество видео: BDRip
Формат видео: AVI
Видео: 720x416 (1.73:1), 23.976 fps, XviD build 73 ~1787 kbps avg, 0.25 bit/pixel
Аудио: 48 kHz, AC3 Dolby Digital, 2/0 (L,R) ch, ~192.00 kbps avg

MediaInfo

Вечное.море. 1955.XviD.BDRip.alf62.avi
Формат : AVI
Формат/Информация : Audio Video Interleave
Размер файла : 1,43 Гбайт
Продолжительность : 1 ч. 43 м.
Общий поток : 1989 Кбит/сек
Программа кодирования : VirtualDubMod 1.5.10.3 | www.virtualdub-fr.org || (build 2550/release)
Библиотека кодирования : VirtualDubMod build 2550/release
Видео
Идентификатор : 0
Формат : MPEG-4 Visual
Профиль формата : Advanced Simple@L5
Параметр BVOP формата : 2
Параметр QPel формата : Нет
Параметр GMC формата : Без точки перехода
Параметр матрицы формата : Default (MPEG)
Идентификатор кодека : XVID
Идентификатор кодека/Подсказка : XviD
Продолжительность : 1 ч. 43 м.
Битрейт : 1788 Кбит/сек
Ширина : 720 пикселей
Высота : 416 пикселей
Соотношение сторон : 1,731
Частота кадров : 23,976 кадра/сек
Цветовое пространство : YUV
Субдискретизация насыщенности : 4:2:0
Битовая глубина : 8 бит
Тип развёртки : Прогрессивная
Метод сжатия : С потерями
Бит/(Пиксели*Кадры) : 0.249
Размер потока : 1,29 Гбайт (90%)
Библиотека кодирования : XviD 73
Аудио
Идентификатор : 1
Формат : AC-3
Формат/Информация : Audio Coding 3
Расширение режима : CM (complete main)
Параметр Endianness формата : Big
Идентификатор кодека : 2000
Продолжительность : 1 ч. 43 м.
Вид битрейта : Постоянный
Битрейт : 192 Кбит/сек
Каналы : 2 канала
Расположение каналов : Front: L R
Частота : 48,0 КГц
Битовая глубина : 16 бит
Метод сжатия : С потерями
Размер потока : 142 Мбайт (10%)
Выравнивание : Разделение по промежуткам
Продолжительность промежутка : 42 мс. (1,00 видеокадр)
Время предзагрузки промежутка : 500 мс.

Скриншот c названием фильма

Скриншоты


To download the content you need:
1. Download and install torrent client [for Windows] or for mobile system
2. Click on [Download]
Attention.
If the test YOU are NOT a ROBOT - does not work, then You are using an outdated browser.
Install the current browser and click on [Download]
Security: torrent client is allowed by Kaspersky.

[en.asmlocator.ru].t3695.torrent 
Torrent: Registered [ 2015-11-29 19:36 ] · 01369FF118077F95AAD9FE43B359B5CBB1F58FE5

Download .torrent

Download

15 KB

Status: checked
Completed: 0 times
Size: 1.43 GB
terms.php
[Profile] [PM]
Display posts:    
Reply to topic

Current time is: 08-Dec 15:47

All times are UTC ± 0



You cannot post new topics in this forum
You cannot reply to topics in this forum
You cannot edit your posts in this forum
You cannot delete your posts in this forum
You cannot vote in polls in this forum
You cannot attach files in this forum
You can download files in this forum
Верим фактам, а не вранью Путина! Факт, что Правительство ведёт Россию к истреблению.
Так как численность населения падает, даже не смотря на приток эмигрантов!
Русская нация вымирает и вырождается, смешиваясь с эмигрантами!
Факт, что военных и граждан предприятий заставляют голосовать за партию Единая Россия и Путина
ПОД СТРАХОМ УВОЛЬНЕНИЯ!
Нам не нужно Правительство, блокирующее личную жизнь, интернет, нарушающее сохранность данных.
Все эти действия финансируются за счёт народа!