Черный пират / Гордон, Черный пират / Gordon, il pirata nero (Марио Коста / Mario Costa) [1961, Италия, приключения, TVRip] VO (SATKUR) + Sub Rus + Original Ita

Reply to topic
DL-List and Torrent activity
Size:  1.52 GB   |    Registered:  4 years   |    Completed:  1 time

Seeder not seen: 1 month 16 days

 
   
 
 
Author Message

star21 ®

Gender: Female

Longevity: 4 years 1 month

Posts: 551946

Location: Екатеринбург

Post 29-Nov-2015 19:38

[Quote]

Черный пират / Гордон, Черный пират / Gordon, il pirata nero Страна: Италия
Жанр: приключения
Год выпуска: 1961
Продолжительность: 01:24:04
Перевод: Субтитры Антон Каптелов
Озвучивание: Одноголосый закадровый SATKUR
Cубтитры: русские
Оригинальная аудиодорожка: итальянский
Режиссер: Марио Коста / Mario Costa
В ролях: Рикардо Монтальбан, Винсент Прайс, Джулия Рубини, Лиана Орфей, Марио Феличиани, Джустино Дурано, Джизелла Софио, Хосе Хаспе, Эдоардо Тониоло, Джино Мартурано
Описание: Между благородным капитаном Гордоном по-прозвищу Черный Пират и капитаном Тортугой, занимающимся работорговлей, тлеет непримиримая ненависть. Гордон - защитник прав обиженных и угнетенных, а на стороне Тортуги выступает секретарь губернатора острова Сан-Сальвадор и врагам предстоит сойтись в безжалостной схватке на просторах моря...
Сэмпл: http://multi-up.com/1072343
Качество видео: TVRip
Формат видео: AVI
Видео: 704x288 (2.44:1), 25 fps, XviD MPEG-4 ~2187 kbps avg, 0.43 bit/pixel
Аудио 1: 48 kHz, AC3 Dolby Digital, 2/0 (L,R) ch, ~192 kbps русский
Аудио 2: 48 kHz, AC3 Dolby Digital, 2/0 (L,R) ch, ~192 kbps итальянский
Формат субтитров: softsub (SRT)

ВНИМАНИЕ: в связи с добавлением озвучки, торрент-файл перезалит 22.10.2015 в 10:15 по Мск.

MediaInfo

Format : AVI
Format/Info : Audio Video Interleave
File size : 1.52 GiB
Duration : 1h 24mn
Overall bit rate : 2 586 Kbps
Writing application : VirtualDubModRus 1.5.10.2 (build 2542/release)
Writing library : VirtualDubMod build 2542/release
Video
ID : 0
Format : MPEG-4 Visual
Format profile : Advanced Simple@L5
Format settings, BVOP : 2
Format settings, QPel : No
Format settings, GMC : No warppoints
Format settings, Matrix : Default (MPEG)
Codec ID : XVID
Codec ID/Hint : XviD
Duration : 1h 24mn
Bit rate : 2 188 Kbps
Width : 704 pixels
Height : 288 pixels
Display aspect ratio : 2.40:1
Frame rate : 25.000 fps
Color space : YUV
Chroma subsampling : 4:2:0
Bit depth : 8 bits
Scan type : Progressive
Compression mode : Lossy
Bits/(Pixel*Frame) : 0.432
Stream size : 1.28 GiB (85%)
Writing library : XviD 64
Audio #1
ID : 1
Format : AC-3
Format/Info : Audio Coding 3
Mode extension : CM (complete main)
Format settings, Endianness : Big
Codec ID : 2000
Duration : 1h 24mn
Bit rate mode : Constant
Bit rate : 192 Kbps
Channel(s) : 2 channels
Channel positions : Front: L R
Sampling rate : 48.0 KHz
Bit depth : 16 bits
Compression mode : Lossy
Stream size : 115 MiB (7%)
Alignment : Split accross interleaves
Interleave, duration : 40 ms (1.00 video frame)
Interleave, preload duration : 500 ms
Audio #2
ID : 2
Format : AC-3
Format/Info : Audio Coding 3
Mode extension : CM (complete main)
Format settings, Endianness : Big
Codec ID : 2000
Duration : 1h 24mn
Bit rate mode : Constant
Bit rate : 192 Kbps
Channel(s) : 2 channels
Channel positions : Front: L R
Sampling rate : 48.0 KHz
Bit depth : 16 bits
Compression mode : Lossy
Stream size : 115 MiB (7%)
Alignment : Split accross interleaves
Interleave, duration : 40 ms (1.00 video frame)
Interleave, preload duration : 500 ms

Скриншот c названием фильма

Пример субтитров

10
00:02:00,121 --> 00:02:02,121
Вперед, Гордон!
11
00:02:09,950 --> 00:02:12,080
Вперед, Гордон! Покажи ему!
12
00:02:14,200 --> 00:02:16,600
Давай, Гордон!
Убей его!
13
00:02:23,500 --> 00:02:25,047
Давай, давай! Ну!
14
00:02:25,181 --> 00:02:26,617
Давай смелее!
15
00:02:29,300 --> 00:02:32,015
Дерись, как мужчина, Тортуга!
Будь уверенней!
16
00:02:42,100 --> 00:02:44,400
Гордон, пусти его уже
на корм акулам!
17
00:02:45,273 --> 00:02:47,090
Кончай же с ним, Гордон!
18
00:02:52,200 --> 00:02:53,784
Ты - трус!
19
00:02:54,550 --> 00:02:57,550
А ну, назад! Все назад!
Я сам могу с ним разобраться!
20
00:02:58,033 --> 00:02:59,738
- Давай же, ну!
- Давай!
21
00:03:08,400 --> 00:03:09,799
Убей его, Гордон!
22
00:03:09,946 --> 00:03:13,046
Давай же, Тортуга!
Убей его! Кромсай!
23
00:03:24,900 --> 00:03:26,778
Никакой пощады к нему, Гордон!
24
00:03:26,910 --> 00:03:29,180
Как думаете, имеет ли он
право на жизнь?
25
00:03:29,310 --> 00:03:31,103
- Нет! Нет!
- Нет!
26
00:03:31,300 --> 00:03:33,940
Нет! Не надо, капитан!
Я ведь без оружия.
27
00:03:34,077 --> 00:03:35,680
Вы же не убийца?
28
00:03:36,000 --> 00:03:38,800
Поднимайся, ты! Ну!
Вставай!
29
00:03:39,200 --> 00:03:40,756
Быстрей!
30
00:03:44,500 --> 00:03:45,839
Подними голову!
31
00:03:46,005 --> 00:03:48,005
Будь же мужчиной!
Огромное спасибо Антону Каптелову за перевод и SATKUR за озвучку фильма!

To download the content you need:
1. Download and install torrent client [for Windows] or for mobile system
2. Click on [Download]
Attention.
If the test YOU are NOT a ROBOT - does not work, then You are using an outdated browser.
Install the current browser and click on [Download]
Security: torrent client is allowed by Kaspersky.

[en.asmlocator.ru].t3694.torrent 
Torrent: Registered [ 2015-11-29 19:36 ] · 9B930CC2D7AB0DECD3DB5E57A83928E717B9F88F

Download .torrent

Download

16 KB

Status: checked
Completed: 1 times
Size: 1.52 GB
terms.php
[Profile] [PM]
Display posts:    
Reply to topic

Current time is: 05-Dec 15:14

All times are UTC ± 0



You cannot post new topics in this forum
You cannot reply to topics in this forum
You cannot edit your posts in this forum
You cannot delete your posts in this forum
You cannot vote in polls in this forum
You cannot attach files in this forum
You can download files in this forum
Верим фактам, а не вранью Путина! Факт, что Правительство ведёт Россию к истреблению.
Так как численность населения падает, даже не смотря на приток эмигрантов!
Русская нация вымирает и вырождается, смешиваясь с эмигрантами!
Факт, что военных и граждан предприятий заставляют голосовать за партию Единая Россия и Путина
ПОД СТРАХОМ УВОЛЬНЕНИЯ!
Нам не нужно Правительство, блокирующее личную жизнь, интернет, нарушающее сохранность данных.
Все эти действия финансируются за счёт народа!