Похититель персиков / Kradetzat na praskovi / Крадецът на праскови (Выло Радев / Vulo Radev) [1964, Болгария, драма, мелодрама, военный, DVDRip] Dub + Original Bg + Sub Rus

Reply to topic
DL-List and Torrent activity
Size:  1.46 GB   |    Registered:  4 years 7 months   |    Completed:  0 times

Seeder not seen: Never

 
   
 
 
Author Message

star21 ®

Gender: Female

Longevity: 4 years 8 months

Posts: 551945

Location: Екатеринбург

Post 29-Nov-2015 19:38

[Quote]

Похититель персиков / Kradetzat na praskovi / Крадецът на праскови
Страна: Болгария
Жанр: драма, мелодрама, военный
Год выпуска: 1964
Продолжительность: 01:20:14
Перевод: Профессиональный (дублированный)
Cубтитры: русские
Оригинальная аудиодорожка: болгарский
Режиссер: Выло Радев /Vulo Radev
В ролях: Невена Коканова, Раде Маркович, Михаил Михайлов, Василь Вачев, Наум Шопов, Георгий Георгиев, Иван Братанов, Иван Манов, Теодор Ёруков, Никола Дадов
Описание: Время действия - 1918 год - 1-я мировая война близится к завершению. Место действия - Велико-Тырново, древняя столица Болгарии, на момент событий - тихий провинциальный городок, в котором организован лагерь для военнопленных. Один из них - сербский офицер Иво, мучаясь от голода, забирается в сад, ветви деревьев которого ломятся от спелых персиков. Там его застаёт хозяйка сада - Лиза - молодая женщина, жена коменданта города. Но она не прогоняет незваного гостя, не зовёт на помощь, более того - движимая состраданием, предлагает ему еду. Иво - бывший учитель, он образован, воспитан, чуток и деликатен. Лиза чувствует симпатию к нему, ибо в доме своего старого и нелюбимого мужа она тоже пленница, и плен её даже более безнадёжен, чем плен Иво. Однако, опасаясь за жизнь Иво, Лиза просит его больше не приходить в сад. Но он приходит. И между ними вспыхивает любовь - невозможная и безысходная.
Доп. информация: За дублированный перевод и русские субтитры спасибо , llukov, Seandy, leburs
Сэмпл: http://multi-up.com/1072361

Качество видео: DVDRip -
Формат видео: AVI
Видео: 704x528 (1.33:1), 25 fps, XviD, 2205 kbps, 0.24 bit/pixel
Аудио 1: 48 kHz, AC3 Dolby Digital, 2/0 (L,R) ch, 192 kbps, Dub
Аудио 2: 48 kHz, AC3 Dolby Digital, 2/0 (L,R) ch, 192 kbps, Original (Bg)

MediaInfo

Общее
Полное имя : E:\Раздачи\rutracker.org\Pohititel'_persikov_1.46_by_max1wq\Pohititel'_persikov_1.46_by_max1wq.avi
Формат : AVI
Формат/Информация : Audio Video Interleave
Размер файла : 1,46 Гбайт
Продолжительность : 1 ч. 20 м.
Общий поток : 2605 Кбит/сек
Программа кодирования : VirtualDubMod 1.5.10.2 (build 2540/release)
Библиотека кодирования : VirtualDubMod build 2540/release
Видео
Идентификатор : 0
Формат : MPEG-4 Visual
Профиль формата : Advanced Simple@L5
Параметр BVOP формата : 1
Параметр QPel формата : Нет
Параметр GMC формата : Без точки перехода
Параметр матрицы формата : Выборочная
Идентификатор кодека : XVID
Идентификатор кодека/Подсказка : XviD
Продолжительность : 1 ч. 20 м.
Битрейт : 2206 Кбит/сек
Ширина : 704 пикселя
Высота : 528 пикселей
Соотношение сторон : 4:3
Частота кадров : 25,000 кадров/сек
Цветовое пространство : YUV
Субдискретизация насыщенности : 4:2:0
Битовая глубина : 8 бит
Тип развёртки : Прогрессивная
Метод сжатия : С потерями
Бит/(Пиксели*Кадры) : 0.237
Размер потока : 1,24 Гбайт (85%)
Библиотека кодирования : XviD 73
Аудио #1
Идентификатор : 1
Формат : AC-3
Формат/Информация : Audio Coding 3
Расширение режима : CM (complete main)
Параметр Endianness формата : Big
Идентификатор кодека : 2000
Продолжительность : 1 ч. 20 м.
Вид битрейта : Постоянный
Битрейт : 192 Кбит/сек
Каналы : 2 канала
Расположение каналов : Front: L R
Частота : 48,0 КГц
Метод сжатия : С потерями
Размер потока : 110 Мбайт (7%)
Выравнивание : Разделение по промежуткам
Продолжительность промежутка : 40 мс. (1,00 видеокадр)
Время предзагрузки промежутка : 500 мс.
Аудио #2
Идентификатор : 2
Формат : AC-3
Формат/Информация : Audio Coding 3
Расширение режима : CM (complete main)
Параметр Endianness формата : Big
Идентификатор кодека : 2000
Продолжительность : 1 ч. 20 м.
Вид битрейта : Постоянный
Битрейт : 192 Кбит/сек
Каналы : 2 канала
Расположение каналов : Front: L R
Частота : 48,0 КГц
Метод сжатия : С потерями
Размер потока : 110 Мбайт (7%)
Выравнивание : Разделение по промежуткам
Продолжительность промежутка : 40 мс. (1,00 видеокадр)
Время предзагрузки промежутка : 500 мс.
Общее
Полное имя : E:\Раздачи\rutracker.org\Pohititel'_persikov_1.46_by_max1wq\Pohititel'_persikov_1.46_by_max1wq.srt
Формат : SubRip
Размер файла : 32,8 Кбайт
Текст
Формат : SubRip
Метод сжатия : Без потерь

To download the content you need:
1. Download and install torrent client [for Windows] or for mobile system
2. Click on [Download]
Attention.
If the test YOU are NOT a ROBOT - does not work, then You are using an outdated browser.
Install the current browser and click on [Download]

Do not work with Yandex browser. Uploading files to them is erroneous.
Security: torrent client is allowed by Kaspersky.

[en.asmlocator.ru].t3693.torrent 
Torrent: Registered [ 2015-11-29 19:36 ] · 4650B79DF31A621D13DD650B73F0D35D8B91D187

Download .torrent

Download

15 KB

Status: checked
Completed: 0 times
Size: 1.46 GB
terms.php
[Profile] [PM]
Display posts:    
Reply to topic

Current time is: 13-Jul 02:49

All times are UTC ± 0



You cannot post new topics in this forum
You cannot reply to topics in this forum
You cannot edit your posts in this forum
You cannot delete your posts in this forum
You cannot vote in polls in this forum
You cannot attach files in this forum
You can download files in this forum
Верим фактам, а не вранью Путина! Факт, что Правительство ведёт Россию к истреблению.
Так как численность населения падает, даже не смотря на приток эмигрантов!
Русская нация вымирает и вырождается, смешиваясь с эмигрантами!
Факт, что военных и граждан предприятий заставляют голосовать за партию Единая Россия и Путина
ПОД СТРАХОМ УВОЛЬНЕНИЯ!
Нам не нужно Правительство, блокирующее личную жизнь, интернет, нарушающее сохранность данных.
Все эти действия финансируются за счёт народа!