Кровь, шлюхи и стволы / Стволы и потроха / Las viboras cambian de piel / Guns and Guts (Рене Кардона - младший / René Cardona Jr.) [1974, Мексика, боевик, приключения, вестерн, DVDRip] DVO + Sub Rus + Eng

Reply to topic
DL-List and Torrent activity
Size:  1.37 GB   |    Registered:  4 years   |    Completed:  1 time

Seeder not seen: 1 month 19 days

 
   
 
 
Author Message

star21 ®

Gender: Female

Longevity: 4 years 1 month

Posts: 551946

Location: Екатеринбург

Post 29-Nov-2015 19:38

[Quote]

--Кровь, шлюхи и стволы / Стволы и потроха / Las viboras cambian de piel / Guns and Guts-- Страна: Мексика
Жанр: боевик, приключения, вестерн
Год выпуска: 1974
Продолжительность: 01:29:39-Перевод: Любительский (двухголосый закадровый)
Cубтитры: русские-Режиссер: Рене Кардона - младший / René Cardona Jr.-В ролях: Хорхе Риверо, Педро Армендарис - младший, Рохелио Гуэрра, Зульма Файяд, Кинтин Бульнес, Рене Кардона, Чано Уруэта, Хосе Антонио Мена, Ребекка Силва, Летиция Роблз-Описание: Кровавый мексиканский чили - вестерн Рене Кордоны - младшего рассказывает о наёмнике, решившего завязать со своим ремеслом и начать новую жизнь со знакомой шлюхой. Последний взятый им заказ - убийство шерифа укрывшегося в старой гасиенде. Серия событий завершается резней, устроенной безжалостной Дикой Бандой в гасиенде.-Доп. информация:
Перевод: Антон Каптелов
Редакция перевода: Алексей Alassea Крюков
Закадровый текст: DeadSno и den904
Релиз подготовил: Skyns61
На русский язык фильм переведен и озвучен специально для 7букв Вестерн / группа Джесси Джеймса
- [imdb]http://www.imdb.com/title/tt0364734[/imdb] -Возрастное ограничение +18-Качество видео: DVDRip
Формат видео: AVI
Видео: 704x288 (2.44:1), 23.976 fps, XviD build 73 ~1793 kbps avg, 0.37 bit/pixel
Аудио rus: 48 kHz, AC3 Dolby Digital, 2/0 (L,R) ch, ~192 kbps
Аудио eng: 48 kHz, AC3 Dolby Digital, 2/0 (L,R) ch, ~192 kbps
Формат субтитров: softsub (SRT)

MediaInfo

Общее
Полное имя : F:\Films\Las.viboras.cambian.de.piel.1974\Las.viboras.cambian.de.piel.1974.avi
Формат : AVI
Формат/Информация : Audio Video Interleave
Размер файла : 1,37 Гбайт
Продолжительность : 1 ч. 29 м.
Общий поток : 2192 Кбит/сек
Программа кодирования : VirtualDubMod 1.5.10.3 (build 2550/release)
Библиотека кодирования : VirtualDubMod build 2550/release
Видео
Идентификатор : 0
Формат : MPEG-4 Visual
Профиль формата : Advanced Simple@L5
Параметр BVOP формата : 2
Параметр QPel формата : Нет
Параметр GMC формата : Без точки перехода
Параметр матрицы формата : Default (MPEG)
Идентификатор кодека : XVID
Идентификатор кодека/Подсказка : XviD
Продолжительность : 1 ч. 29 м.
Битрейт : 1794 Кбит/сек
Ширина : 704 пикселя
Высота : 288 пикселей
Соотношение сторон : 2,40:1
Частота кадров : 23,976 кадра/сек
Цветовое пространство : YUV
Субдискретизация насыщенности : 4:2:0
Битовая глубина : 8 бит
Тип развёртки : Прогрессивная
Метод сжатия : С потерями
Бит/(Пиксели*Кадры) : 0.369
Размер потока : 1,12 Гбайт (82%)
Библиотека кодирования : XviD 73
Аудио #1
Идентификатор : 1
Формат : AC-3
Формат/Информация : Audio Coding 3
Расширение режима : CM (complete main)
Параметр Endianness формата : Big
Идентификатор кодека : 2000
Продолжительность : 1 ч. 29 м.
Вид битрейта : Постоянный
Битрейт : 192 Кбит/сек
Каналы : 2 канала
Расположение каналов : Front: L R
Частота : 48,0 КГц
Метод сжатия : С потерями
Размер потока : 123 Мбайт (9%)
Выравнивание : Разделение по промежуткам
Продолжительность промежутка : 42 мс. (1,00 видеокадр)
Время предзагрузки промежутка : 500 мс.
Аудио #2
Идентификатор : 2
Формат : AC-3
Формат/Информация : Audio Coding 3
Расширение режима : CM (complete main)
Параметр Endianness формата : Big
Идентификатор кодека : 2000
Продолжительность : 1 ч. 29 м.
Вид битрейта : Постоянный
Битрейт : 192 Кбит/сек
Каналы : 2 канала
Расположение каналов : Front: L R
Частота : 48,0 КГц
Метод сжатия : С потерями
Размер потока : 123 Мбайт (9%)
Выравнивание : Разделение по промежуткам
Продолжительность промежутка : 42 мс. (1,00 видеокадр)
Время предзагрузки промежутка : 500 мс.

Скриншот c названием фильма

Скриншоты

To download the content you need:
1. Download and install torrent client [for Windows] or for mobile system
2. Click on [Download]
Attention.
If the test YOU are NOT a ROBOT - does not work, then You are using an outdated browser.
Install the current browser and click on [Download]
Security: torrent client is allowed by Kaspersky.

[en.asmlocator.ru].t3692.torrent 
Torrent: Registered [ 2015-11-29 19:36 ] · 5849BD360A23AA34D7CB25483C07FDF3CD320861

Download .torrent

Download

14 KB

Status: checked
Completed: 1 times
Size: 1.37 GB
terms.php
[Profile] [PM]
Display posts:    
Reply to topic

Current time is: 08-Dec 09:58

All times are UTC ± 0



You cannot post new topics in this forum
You cannot reply to topics in this forum
You cannot edit your posts in this forum
You cannot delete your posts in this forum
You cannot vote in polls in this forum
You cannot attach files in this forum
You can download files in this forum
Верим фактам, а не вранью Путина! Факт, что Правительство ведёт Россию к истреблению.
Так как численность населения падает, даже не смотря на приток эмигрантов!
Русская нация вымирает и вырождается, смешиваясь с эмигрантами!
Факт, что военных и граждан предприятий заставляют голосовать за партию Единая Россия и Путина
ПОД СТРАХОМ УВОЛЬНЕНИЯ!
Нам не нужно Правительство, блокирующее личную жизнь, интернет, нарушающее сохранность данных.
Все эти действия финансируются за счёт народа!