Атака легкой кавалерии / The Charge of the Light Brigade (Майкл Кёртиц / Michael Curtiz) [1936, США, боевик, мелодрама, приключения, военный, WEB-DLRip] MVO (Светла)

Reply to topic
DL-List and Torrent activity
Size:  1.46 GB   |    Registered:  4 years   |    Completed:  0 times

Seeder not seen: 1 year 2 months

 
   
 
 
Author Message

star21 ®

Gender: Female

Longevity: 4 years 1 month

Posts: 551946

Location: Екатеринбург

Post 29-Nov-2015 19:38

[Quote]

Атака легкой кавалерии / The Charge of the Light Brigade
Страна: США
Жанр: боевик, мелодрама, приключения, военный
Год выпуска: 1936
Продолжительность: 01:55:20
Перевод: Профессиональный (многоголосый закадровый) - Светла
Cубтитры: нет

Режиссер: Майкл Кёртиц / Michael Curtiz
В ролях: Эррол Флинн, Оливия Де Хэвилленд, Патрик Ноулз, Генри Стивенсон, Найджел Брюс, Дональд Крисп, Дэвид Нивен, С. Генри Гордон, Г.П. Хантли, Роберт Бэррат
Описание: Конвой британских уланов в сопровождении сэра Хамфри Аркура прибывает с дипломатической миссией в Суристан — северо-западная Индия — перед началом Крымской войны. Майор Джеффри Викерс, блестящий британский офицер, встречается с индийским раджой, которого знает со времен учебы в Лондоне. Теперь Сурат Хан живет в горном замке и стал могущественным эмиром всех земель Суристана. Вскоре Сурат Хан, который прекращает связи с Англией и вступает в союз с Россией, поднимает восстание, которое переходит в кровавую резню. После коварного предательства Сурат Ханом британских войск Викерс ищет мести, проведя глупую, но храбрую атаку на русские силы… В 1854 году в ходе Крымской войны английское командование бросило в лихую атаку на русские пушки элитную кавалерийскую бригаду. Цвет аристократической молодежи полег в «долине смерти» под Балаклавой. До сих пор для англичан выражение «атака легкой кавалерии» - синоним невероятно храброго, но бессмысленного поступка. Крымский эпизод — лишь эпилог великолепного фильма Майкла Кертица.
Качество видео:
Формат видео: AVI
Видео: 656x480 (1.37:1), 23.976 fps, XviD build 73 ~1604 kbps avg, 0.21 bit/pixel
Аудио: 48 kHz, AC3 Dolby Digital, 2/0 (L,R) ch, ~192 kbps

MediaInfo

Общее
Полное имя : H:\The.Charge.of.the.Light.Brigade.1936.web-dlrip_[1.46]_[teko].avi
Формат : AVI
Формат/Информация : Audio Video Interleave
Размер файла : 1,46 Гбайт
Продолжительность : 1 ч. 55 м.
Общий поток : 1806 Кбит/сек
Программа кодирования : VirtualDubMod 1.5.10.3 | www.virtualdub-fr.org || (build 2550/release)
Библиотека кодирования : VirtualDubMod build 2550/release
Видео
Идентификатор : 0
Формат : MPEG-4 Visual
Профиль формата : Advanced Simple@L5
Параметр BVOP формата : 1
Параметр QPel формата : Нет
Параметр GMC формата : Без точки перехода
Параметр матрицы формата : Выборочная
Идентификатор кодека : XVID
Идентификатор кодека/Подсказка : XviD
Продолжительность : 1 ч. 55 м.
Битрейт : 1604 Кбит/сек
Ширина : 656 пикселей
Высота : 480 пикселей
Соотношение сторон : 4:3
Частота кадров : 23,976 кадра/сек
Цветовое пространство : YUV
Субдискретизация насыщенности : 4:2:0
Битовая глубина : 8 бит
Тип развёртки : Прогрессивная
Метод сжатия : С потерями
Бит/(Пиксели*Кадры) : 0.213
Размер потока : 1,29 Гбайт (89%)
Библиотека кодирования : XviD 73
Аудио
Идентификатор : 1
Формат : AC-3
Формат/Информация : Audio Coding 3
Расширение режима : CM (complete main)
Параметр Endianness формата : Big
Идентификатор кодека : 2000
Продолжительность : 1 ч. 55 м.
Вид битрейта : Постоянный
Битрейт : 192 Кбит/сек
Каналы : 2 канала
Расположение каналов : Front: L R
Частота : 48,0 КГц
Битовая глубина : 16 бит
Метод сжатия : С потерями
Размер потока : 158 Мбайт (11%)
Выравнивание : Разделение по промежуткам
Продолжительность промежутка : 42 мс. (1,00 видеокадр)
Время предзагрузки промежутка : 500 мс.
Релиз группы:
-
-

To download the content you need:
1. Download and install torrent client [for Windows] or for mobile system
2. Click on [Download]
Attention.
If the test YOU are NOT a ROBOT - does not work, then You are using an outdated browser.
Install the current browser and click on [Download]
Security: torrent client is allowed by Kaspersky.

[en.asmlocator.ru].t3691.torrent 
Torrent: Registered [ 2015-11-29 19:36 ] · 499BBB27656F4A6458553FAADD078389FB5CF874

Download .torrent

Download

15 KB

Status: checked
Completed: 0 times
Size: 1.46 GB
terms.php
[Profile] [PM]
Display posts:    
Reply to topic

Current time is: 05-Dec 14:42

All times are UTC ± 0



You cannot post new topics in this forum
You cannot reply to topics in this forum
You cannot edit your posts in this forum
You cannot delete your posts in this forum
You cannot vote in polls in this forum
You cannot attach files in this forum
You can download files in this forum
Верим фактам, а не вранью Путина! Факт, что Правительство ведёт Россию к истреблению.
Так как численность населения падает, даже не смотря на приток эмигрантов!
Русская нация вымирает и вырождается, смешиваясь с эмигрантами!
Факт, что военных и граждан предприятий заставляют голосовать за партию Единая Россия и Путина
ПОД СТРАХОМ УВОЛЬНЕНИЯ!
Нам не нужно Правительство, блокирующее личную жизнь, интернет, нарушающее сохранность данных.
Все эти действия финансируются за счёт народа!