Моя кузина Рэйчел / My Cousin Rachel (Генри Костер / Henry Koster) [1952, США, мелодрама, драма, детектив, DVDRip] MVO (5-й канал СПб) + MVO (РенТВ) + Original Eng

Reply to topic
DL-List and Torrent activity
Size:  1.72 GB   |    Registered:  4 years   |    Completed:  0 times

Seeder not seen: Never

 
   
 
 
Author Message

star21 ®

Gender: Female

Longevity: 4 years 1 month

Posts: 551946

Location: Екатеринбург

Post 29-Nov-2015 19:38

[Quote]

Моя кузина Рэйчел / My Cousin Rachel
Страна: США
Жанр: мелодрама, драма, детектив
Год выпуска: 1952
Продолжительность: 01:38:23
Перевод: Профессиональный (многоголосый закадровый) - 5-й канал СПб
Перевод: Профессиональный (многоголосый закадровый) - РенТВ
Cубтитры: нет
Оригинальная аудиодорожка: английский

Режиссер: Генри Костер / Henry Koster
В ролях: Оливия де Хэвиллэнд, Ричард Бертон, Одри Далтон, Рональд Сквайр, Джордж Доленц, Джон Саттон, Тудор Оуэн, Дж. Керриган, Маргарет Брюстер, Альма Лоутон
Описание: Экранизация романа Дафны дю Морье.
Англия, начало XIX века. Филиппа, в раннем детстве потерявшего родителей, воспитывал двоюродный брат Эмброз. Для того, чтобы поправить здоровье, Эмброз уезжает в Италию. Там он знакомится со своей дальней родственницей Рэйчел. «Кузина Рэйчел», как он называет новую знакомую, очаровывает его, они становятся мужем и женой, что вызывает у Филиппа, обожавшего брата, острый приступ ревности и ненависти к молодой женщине. Ненависть усугубляется, когда он узнает о смерти брата от мозговой горячки. Но когда кузина Рэйчел приезжает в поместье, все меняется. Она неотразима и легко покоряет всех, кто знакомится с ней, в том числе и Филиппа, готового бросить к ее ногам не только свое сердце, но также фамильные драгоценности и поместье. А ведь последние письма Эмброза давали понять, что это она поспособствовала смерти мужа, отравив его в расчете получить состояние. Что ждет Филиппа в ближайшем будущем? Счастливая жизнь с Рэйчел или смерть?

Качество видео:
Формат видео: AVI
Видео: 640x480 (1.33:1), 23.976 fps, XviD build 73 ~1916 kbps avg, 0.26 bit/pixel
Аудио: 48 kHz, AC3 Dolby Digital, 2/0 (L,R) ch, ~192 kbps - 5 канал
отдельными файлами:
Аудио: 48 kHz, AC3 Dolby Digital, 2/0 (L,R) ch, ~192 kbps - РенТВ
Аудио: 48 kHz, AC3 Dolby Digital, 2/0 (L,R) ch, ~192 kbps - оригинал

MediaInfo

Общее
Полное имя : H:\My.Cousin.Rachel.1952.dvdrip_[1.46]_[teko]\My.Cousin.Rachel.1952.dvdrip_[1.46].avi
Формат : AVI
Формат/Информация : Audio Video Interleave
Размер файла : 1,46 Гбайт
Продолжительность : 1 ч. 38 м.
Общий поток : 2118 Кбит/сек
Программа кодирования : VirtualDubMod 1.5.10.3 | www.virtualdub-fr.org || (build 2550/release)
Библиотека кодирования : VirtualDubMod build 2550/release
Видео
Идентификатор : 0
Формат : MPEG-4 Visual
Профиль формата : Advanced Simple@L5
Параметр BVOP формата : 1
Параметр QPel формата : Нет
Параметр GMC формата : Без точки перехода
Параметр матрицы формата : Выборочная
Идентификатор кодека : XVID
Идентификатор кодека/Подсказка : XviD
Продолжительность : 1 ч. 38 м.
Битрейт : 1917 Кбит/сек
Ширина : 640 пикселей
Высота : 480 пикселей
Соотношение сторон : 4:3
Частота кадров : 23,976 кадра/сек
Цветовое пространство : YUV
Субдискретизация насыщенности : 4:2:0
Битовая глубина : 8 бит
Тип развёртки : Прогрессивная
Метод сжатия : С потерями
Бит/(Пиксели*Кадры) : 0.260
Размер потока : 1,32 Гбайт (90%)
Библиотека кодирования : XviD 73
Аудио
Идентификатор : 1
Формат : AC-3
Формат/Информация : Audio Coding 3
Расширение режима : CM (complete main)
Параметр Endianness формата : Big
Идентификатор кодека : 2000
Продолжительность : 1 ч. 38 м.
Вид битрейта : Постоянный
Битрейт : 192 Кбит/сек
Каналы : 2 канала
Расположение каналов : Front: L R
Частота : 48,0 КГц
Битовая глубина : 16 бит
Метод сжатия : С потерями
Размер потока : 135 Мбайт (9%)
Выравнивание : Разделение по промежуткам
Продолжительность промежутка : 42 мс. (1,00 видеокадр)
Время предзагрузки промежутка : 500 мс.
Релиз группы:
-
-

To download the content you need:
1. Download and install torrent client [for Windows] or for mobile system
2. Click on [Download]
Attention.
If the test YOU are NOT a ROBOT - does not work, then You are using an outdated browser.
Install the current browser and click on [Download]
Security: torrent client is allowed by Kaspersky.

[en.asmlocator.ru].t3690.torrent 
Torrent: Registered [ 2015-11-29 19:36 ] · CE78D113AFF7BE823626519C2DD92313EEC40A14

Download .torrent

Download

18 KB

Status: checked
Completed: 0 times
Size: 1.72 GB
terms.php
[Profile] [PM]
Display posts:    
Reply to topic

Current time is: 05-Dec 15:09

All times are UTC ± 0



You cannot post new topics in this forum
You cannot reply to topics in this forum
You cannot edit your posts in this forum
You cannot delete your posts in this forum
You cannot vote in polls in this forum
You cannot attach files in this forum
You can download files in this forum
Верим фактам, а не вранью Путина! Факт, что Правительство ведёт Россию к истреблению.
Так как численность населения падает, даже не смотря на приток эмигрантов!
Русская нация вымирает и вырождается, смешиваясь с эмигрантами!
Факт, что военных и граждан предприятий заставляют голосовать за партию Единая Россия и Путина
ПОД СТРАХОМ УВОЛЬНЕНИЯ!
Нам не нужно Правительство, блокирующее личную жизнь, интернет, нарушающее сохранность данных.
Все эти действия финансируются за счёт народа!