Четыре мушкетера Шарло / 4 мушкетера Шарло / Les quatre Charlots mousquetaires (Андре Юнебель / André Hunebelle) [1973, Франция, комедия, приключения, DVDRip-AVC] Dub + DVO (НТВ+) + Sub Rus + Original Fre

Reply to topic
DL-List and Torrent activity
Size:  2.33 GB   |    Registered:  4 years   |    Completed:  0 times

Seeder not seen: 1 year 11 months

 
   
 
 
Author Message

star21 ®

Gender: Female

Longevity: 4 years 1 month

Posts: 551946

Location: Екатеринбург

Post 29-Nov-2015 19:38

[Quote]

4 мушкетера Шарло / Les quatre Charlots mousquetaires
Страна: Франция
Жанр: комедия, приключения
Год выпуска: 1973
Продолжительность: 01:48:11
Перевод 1: Профессиональный (дублированный)
Перевод 2: Профессиональный (двухголосый закадровый) НТВ+ Елена Борзунова и Пётр Гланц
Cубтитры: русские
Оригинальная аудиодорожка: французский отдельным файлом
Режиссер: Андре Юнебель / André Hunebelle
В ролях: Жерар Ринальди, Жерар Филипелли, Жан Саррю, Жан-Ги Фечнер, Джозефин Чаплин, Даниэль Секкальди, Поль Пребуа, Бернард Хэллер, Карин Петерсен, Катрин Журдан...
Описание: Хотите знать, как все было на самом деле? На самом деле все подвиги, приписанные Александром Дюма трем мушкетерам и Д`Артаньяну, совершены их слугами — Планше, Гримо, Базеном и Мушкетоном.
Сэмпл: http://multi-up.com/1072469
Качество видео: DVDRip-AVC
Формат видео: MKV
Видео: 676x574 (1.674) @ 962x574, 25.000 fps, AVC, ~2500 Kbps, 0.258 bits/pixel
Аудио 1: Russian, 48.0 KHz, AC3, 2 ch, 192 Kbps
Аудио 2: Russian, 48.0 KHz, AC3, 2 ch, 192 Kbps - НТВ+
Аудио 3: French, 48.0 KHz, AC3, 2 ch, 192 Kbps отдельным файлом

Log

avs4x264.exe: -L x264_64.exe --pass 2 --bitrate 2500 --preset medium --ref 10 --deblock -1:-1 --merange 32 --bframes 10 --direct auto --b-adapt 2 --trellis 2 --no-fast-pskip --psy-rd 1.00:0.10 --partitions all --subme 10 --me umh --rc-lookahead 50 --sar 741:521 --stats
raw [info]: 676x574p 741:521 @ 25/1 fps (cfr)
x264 [info]: using SAR=741/521
x264 [info]: using cpu capabilities: MMX2 SSE2Fast LZCNT
x264 [info]: profile High, level 3.1
x264 [info]: frame I:1061 Avg QP:18.92 size: 72848
x264 [info]: frame P:33685 Avg QP:21.99 size: 29700
x264 [info]: frame B:127530 Avg QP:25.50 size: 7451
x264 [info]: consecutive B-frames: 1.2% 2.0% 7.3% 19.4% 11.9% 54.1% 2.2% 0.7% 0.7% 0.3% 0.3%
x264 [info]: mb I I16..4: 4.0% 69.9% 26.1%
x264 [info]: mb P I16..4: 0.6% 13.5% 3.2% P16..4: 38.3% 24.8% 16.0% 1.0% 0.2% skip: 2.4%
x264 [info]: mb B I16..4: 0.1% 1.4% 0.5% B16..8: 38.4% 10.8% 2.9% direct: 7.5% skip:38.5% L0:35.6% L1:38.4% BI:26.0%
x264 [info]: 8x8 transform intra:75.3% inter:59.4%
x264 [info]: direct mvs spatial:97.7% temporal:2.3%
x264 [info]: coded y,uvDC,uvAC intra: 92.1% 85.3% 48.9% inter: 33.8% 26.1% 2.5%
x264 [info]: i16 v,h,dc,p: 45% 17% 11% 27%
x264 [info]: i8 v,h,dc,ddl,ddr,vr,hd,vl,hu: 17% 10% 6% 8% 12% 15% 10% 13% 10%
x264 [info]: i4 v,h,dc,ddl,ddr,vr,hd,vl,hu: 18% 15% 3% 7% 11% 16% 9% 12% 9%
x264 [info]: i8c dc,h,v,p: 31% 23% 28% 18%
x264 [info]: Weighted P-Frames: Y:7.4% UV:2.3%
x264 [info]: ref P L0: 37.3% 15.2% 22.4% 5.1% 6.3% 3.0% 4.3% 1.7% 2.6% 1.7% 0.3% 0.0%
x264 [info]: ref B L0: 83.2% 9.8% 2.5% 1.5% 0.9% 0.9% 0.7% 0.4% 0.2%
x264 [info]: ref B L1: 96.8% 3.2%
x264 [info]: kb/s:2499.44
x264 [total]: encoded 162276 frames, 11.21 fps, 2499.44 kb/s

MediaInfo

General
Unique ID : 221078269080250500652715711505956219904 (0xA65220378A9CAFF6A553AFF0B75E2C00)
Complete name : C:\Les quatre Charlots mousquetaires\Les quatre Charlots mousquetaires.mkv
Format : Matroska
Format version : Version 4 / Version 2
File size : 2.18 GiB
Duration : 1h 48mn
Overall bit rate : 2 886 Kbps
Encoded date : UTC 2015-10-15 19:23:12
Writing application : mkvmerge v8.4.0 ('A better way to fly') 64bit
Writing library : libebml v1.3.1 + libmatroska v1.4.2
DURATION : 01:45:16.311000000
NUMBER_OF_FRAMES : 1183
NUMBER_OF_BYTES : 76924
_STATISTICS_WRITING_APP : mkvmerge v8.4.0 ('A better way to fly') 64bit
_STATISTICS_WRITING_DATE_UT : 2015-10-15 19:23:12
_STATISTICS_TAGS : BPS DURATION NUMBER_OF_FRAMES NUMBER_OF_BYTES
Video
ID : 1
Format : AVC
Format/Info : Advanced Video Codec
Format profile : High@L3.1
Format settings, CABAC : Yes
Format settings, ReFrames : 10 frames
Codec ID : V_MPEG4/ISO/AVC
Duration : 1h 48mn
Bit rate : 2 500 Kbps
Width : 676 pixels
Height : 574 pixels
Display aspect ratio : 5:3
Original display aspect rat : 5:3
Frame rate mode : Constant
Frame rate : 25.000 fps
Color space : YUV
Chroma subsampling : 4:2:0
Bit depth : 8 bits
Scan type : Progressive
Bits/(Pixel*Frame) : 0.258
Stream size : 1.85 GiB (85%)
Writing library : x264 core 146 r2538 121396c
Encoding settings : cabac=1 / ref=10 / deblock=1:-1:-1 / analyse=0x3:0x133 / me=umh / subme=10 / psy=1 / psy_rd=1.00:0.10 / mixed_ref=1 / me_range=32 / chroma_me=1 / trellis=2 / 8x8dct=1 / cqm=0 / deadzone=21,11 / fast_pskip=0 / chroma_qp_offset=-3 / threads=6 / lookahead_threads=1 / sliced_threads=0 / nr=0 / decimate=1 / interlaced=0 / bluray_compat=0 / constrained_intra=0 / bframes=10 / b_pyramid=2 / b_adapt=2 / b_bias=0 / direct=3 / weightb=1 / open_gop=0 / weightp=2 / keyint=250 / keyint_min=25 / scenecut=40 / intra_refresh=0 / rc_lookahead=50 / rc=2pass / mbtree=1 / bitrate=2500 / ratetol=1.0 / qcomp=0.60 / qpmin=0 / qpmax=69 / qpstep=4 / cplxblur=20.0 / qblur=0.5 / ip_ratio=1.40 / aq=1:1.00
Language : French
Default : Yes
Forced : No
Audio #1
ID : 2
Format : AC-3
Format/Info : Audio Coding 3
Mode extension : CM (complete main)
Format settings, Endianness : Big
Codec ID : A_AC3
Duration : 1h 48mn
Bit rate mode : Constant
Bit rate : 192 Kbps
Channel(s) : 2 channels
Channel positions : Front: L R
Sampling rate : 48.0 KHz
Compression mode : Lossy
Stream size : 149 MiB (7%)
Language : Russian
Default : Yes
Forced : No
Audio #2
ID : 3
Format : AC-3
Format/Info : Audio Coding 3
Mode extension : CM (complete main)
Format settings, Endianness : Big
Codec ID : A_AC3
Duration : 1h 48mn
Bit rate mode : Constant
Bit rate : 192 Kbps
Channel(s) : 2 channels
Channel positions : Front: L R
Sampling rate : 48.0 KHz
Compression mode : Lossy
Stream size : 149 MiB (7%)
Title : НТВ+
Language : Russian
Default : No
Forced : No
Text
ID : 4
Format : UTF-8
Codec ID : S_TEXT/UTF8
Codec ID/Info : UTF-8 Plain Text
Language : Russian
Default : No
Forced : No
Menu
00:00:00.000 : :Chapter 01
00:03:12.040 : :Chapter 02
00:13:48.200 : :Chapter 03
00:25:47.560 : :Chapter 04
00:30:21.160 : :Chapter 05
00:36:10.120 : :Chapter 06
00:41:57.320 : :Chapter 07
00:50:15.720 : :Chapter 08
00:57:56.880 : :Chapter 09
01:05:37.240 : :Chapter 10
01:10:13.160 : :Chapter 11
01:17:54.680 : :Chapter 12
01:24:18.560 : :Chapter 13
01:32:34.680 : :Chapter 14
01:40:37.000 : :Chapter 15
01:44:52.360 : :Chapter 16

Скриншоты

To download the content you need:
1. Download and install torrent client [for Windows] or for mobile system
2. Click on [Download]
Attention.
If the test YOU are NOT a ROBOT - does not work, then You are using an outdated browser.
Install the current browser and click on [Download]
Security: torrent client is allowed by Kaspersky.

[en.asmlocator.ru].t3687.torrent 
Torrent: Registered [ 2015-11-29 19:36 ] · 977BBFC608AC7DF8CD8F23ACFF4287FB442500E9

Download .torrent

Download

12 KB

Status: checked
Completed: 0 times
Size: 2.33 GB
terms.php
[Profile] [PM]
Display posts:    
Reply to topic

Current time is: 12-Dec 02:39

All times are UTC ± 0



You cannot post new topics in this forum
You cannot reply to topics in this forum
You cannot edit your posts in this forum
You cannot delete your posts in this forum
You cannot vote in polls in this forum
You cannot attach files in this forum
You can download files in this forum
Верим фактам, а не вранью Путина! Факт, что Правительство ведёт Россию к истреблению.
Так как численность населения падает, даже не смотря на приток эмигрантов!
Русская нация вымирает и вырождается, смешиваясь с эмигрантами!
Факт, что военных и граждан предприятий заставляют голосовать за партию Единая Россия и Путина
ПОД СТРАХОМ УВОЛЬНЕНИЯ!
Нам не нужно Правительство, блокирующее личную жизнь, интернет, нарушающее сохранность данных.
Все эти действия финансируются за счёт народа!