Четверо против кардинала / Les Charlots en folie: À nous quatre Cardinal! (Андре Юнебель / André Hunebelle) [1974, Франция, комедия, приключения, DVDRip-AVC] Dub + DVO (НТВ+) + Sub Rus + Original Fre

Reply to topic
DL-List and Torrent activity
Size:  2.05 GB   |    Registered:  4 years   |    Completed:  1 time

Seeder not seen: 1 month 20 days

 
   
 
 
Author Message

star21 ®

Gender: Female

Longevity: 4 years 1 month

Posts: 551946

Location: Екатеринбург

Post 29-Nov-2015 19:38

[Quote]

Четверо против кардинала / Les Charlots en folie: À nous quatre Cardinal!
Страна: Франция
Жанр: комедия, приключения
Год выпуска: 1974
Продолжительность: 01:35:18
Перевод 1: Профессиональный (дублированный)
Перевод 2: Профессиональный (двухголосый закадровый) НТВ+ Елена Борзунова и Пётр Гланц
Cубтитры: русские
Оригинальная аудиодорожка: французский
Режиссер: Андре Юнебель / André Hunebelle
В ролях: Жерар Ринальди, Жерар Филипелли, Жан Саррю, Жан-Ги Фечнер, Жан Вальмонт, Иван Танги, Жиб Гроссак, Жорж Мансар, Бернард Хэллер, Даниэль Секкальди...
Описание: Слуги помогают своим хозяевам вернуть королеве алмазные подвески и посрамить кардинала Ришелье
Сэмпл: http://multi-up.com/1072471
Качество видео: DVDRip-AVC
Формат видео: MKV
Видео: 676x574 (1.674) @ 962x574, 25.000 fps, AVC, ~2500 Kbps, 0.258 bits/pixel
Аудио 1: Russian, 48.0 KHz, AC3, 2 ch, 192 Kbps
Аудио 2: Russian, 48.0 KHz, AC3, 2 ch, 192 Kbps - НТВ+
Аудио 3: French, 48.0 KHz, AC3, 2 ch, 192 Kbps

Log

avs4x264.exe: -L x264_64.exe --pass 2 --bitrate 2500 --preset medium --ref 10 --deblock -1:-1 --merange 32 --bframes 10 --direct auto --b-adapt 2 --trellis 2 --no-fast-pskip --psy-rd 1.00:0.10 --partitions all --subme 10 --me umh --rc-lookahead 50 --sar 741:521 --stats
raw [info]: 676x574p 741:521 @ 25/1 fps (cfr)
x264 [info]: using SAR=741/521
x264 [info]: using cpu capabilities: MMX2 SSE2Fast LZCNT
x264 [info]: profile High, level 3.1
x264 [info]: frame I:1014 Avg QP:19.65 size: 69861
x264 [info]: frame P:30141 Avg QP:22.70 size: 27850
x264 [info]: frame B:111784 Avg QP:25.40 size: 7834
x264 [info]: consecutive B-frames: 1.4% 2.3% 7.2% 20.5% 14.9% 47.9% 3.9% 0.8% 0.6% 0.3% 0.1%
x264 [info]: mb I I16..4: 1.7% 87.9% 10.4%
x264 [info]: mb P I16..4: 0.4% 16.3% 1.8% P16..4: 38.9% 25.6% 15.5% 0.5% 0.1% skip: 0.8%
x264 [info]: mb B I16..4: 0.0% 1.6% 0.2% B16..8: 41.5% 12.6% 3.2% direct: 7.9% skip:32.9% L0:38.1% L1:41.1% BI:20.9%
x264 [info]: 8x8 transform intra:87.1% inter:73.5%
x264 [info]: direct mvs spatial:98.1% temporal:1.9%
x264 [info]: coded y,uvDC,uvAC intra: 94.1% 85.3% 43.3% inter: 36.6% 29.6% 2.2%
x264 [info]: i16 v,h,dc,p: 35% 17% 15% 33%
x264 [info]: i8 v,h,dc,ddl,ddr,vr,hd,vl,hu: 14% 8% 5% 9% 13% 15% 11% 13% 11%
x264 [info]: i4 v,h,dc,ddl,ddr,vr,hd,vl,hu: 14% 15% 3% 8% 12% 17% 10% 13% 9%
x264 [info]: i8c dc,h,v,p: 34% 22% 26% 19%
x264 [info]: Weighted P-Frames: Y:11.0% UV:3.7%
x264 [info]: ref P L0: 37.1% 14.6% 21.5% 6.0% 6.3% 3.5% 4.4% 1.9% 2.6% 1.8% 0.3% 0.0%
x264 [info]: ref B L0: 80.1% 10.7% 3.2% 1.9% 1.3% 1.2% 0.9% 0.5% 0.2%
x264 [info]: ref B L1: 96.0% 4.0%
x264 [info]: kb/s:2498.86
x264 [total]: encoded 142939 frames, 9.63 fps, 2498.86 kb/s

MediaInfo

General
Unique ID : 200035887949734385013304516522579560410 (0x967D82BA50C21888BC747A7AA94B87DA)
Complete name : C:\Les Charlots en folie - A nous quatre Cardinal!.mkv
Format : Matroska
Format version : Version 4 / Version 2
File size : 2.05 GiB
Duration : 1h 35mn
Overall bit rate : 3 081 Kbps
Encoded date : UTC 2015-10-15 19:27:02
Writing application : mkvmerge v8.4.0 ('A better way to fly') 64bit
Writing library : libebml v1.3.1 + libmatroska v1.4.2
DURATION : 01:32:29.391000000
NUMBER_OF_FRAMES : 981
NUMBER_OF_BYTES : 2970504
_STATISTICS_WRITING_APP : mkvmerge v8.4.0 ('A better way to fly') 64bit
_STATISTICS_WRITING_DATE_UT : 2015-10-15 19:27:02
_STATISTICS_TAGS : BPS DURATION NUMBER_OF_FRAMES NUMBER_OF_BYTES
Video
ID : 1
Format : AVC
Format/Info : Advanced Video Codec
Format profile : High@L3.1
Format settings, CABAC : Yes
Format settings, ReFrames : 10 frames
Codec ID : V_MPEG4/ISO/AVC
Duration : 1h 35mn
Bit rate : 2 500 Kbps
Width : 676 pixels
Height : 574 pixels
Display aspect ratio : 5:3
Original display aspect rat : 5:3
Frame rate mode : Constant
Frame rate : 25.000 fps
Color space : YUV
Chroma subsampling : 4:2:0
Bit depth : 8 bits
Scan type : Progressive
Bits/(Pixel*Frame) : 0.258
Stream size : 1.63 GiB (79%)
Writing library : x264 core 146 r2538 121396c
Encoding settings : cabac=1 / ref=10 / deblock=1:-1:-1 / analyse=0x3:0x133 / me=umh / subme=10 / psy=1 / psy_rd=1.00:0.10 / mixed_ref=1 / me_range=32 / chroma_me=1 / trellis=2 / 8x8dct=1 / cqm=0 / deadzone=21,11 / fast_pskip=0 / chroma_qp_offset=-3 / threads=6 / lookahead_threads=1 / sliced_threads=0 / nr=0 / decimate=1 / interlaced=0 / bluray_compat=0 / constrained_intra=0 / bframes=10 / b_pyramid=2 / b_adapt=2 / b_bias=0 / direct=3 / weightb=1 / open_gop=0 / weightp=2 / keyint=250 / keyint_min=25 / scenecut=40 / intra_refresh=0 / rc_lookahead=50 / rc=2pass / mbtree=1 / bitrate=2500 / ratetol=1.0 / qcomp=0.60 / qpmin=0 / qpmax=69 / qpstep=4 / cplxblur=20.0 / qblur=0.5 / ip_ratio=1.40 / aq=1:1.00
Language : French
Default : Yes
Forced : No
Audio #1
ID : 2
Format : AC-3
Format/Info : Audio Coding 3
Mode extension : CM (complete main)
Format settings, Endianness : Big
Codec ID : A_AC3
Duration : 1h 35mn
Bit rate mode : Constant
Bit rate : 192 Kbps
Channel(s) : 2 channels
Channel positions : Front: L R
Sampling rate : 48.0 KHz
Compression mode : Lossy
Stream size : 131 MiB (6%)
Language : Russian
Default : Yes
Forced : No
Audio #2
ID : 3
Format : AC-3
Format/Info : Audio Coding 3
Mode extension : CM (complete main)
Format settings, Endianness : Big
Codec ID : A_AC3
Duration : 1h 35mn
Bit rate mode : Constant
Bit rate : 192 Kbps
Channel(s) : 2 channels
Channel positions : Front: L R
Sampling rate : 48.0 KHz
Compression mode : Lossy
Stream size : 131 MiB (6%)
Title : НТВ+
Language : Russian
Default : No
Forced : No
Audio #3
ID : 4
Format : AC-3
Format/Info : Audio Coding 3
Mode extension : CM (complete main)
Format settings, Endianness : Big
Codec ID : A_AC3
Duration : 1h 35mn
Bit rate mode : Constant
Bit rate : 192 Kbps
Channel(s) : 2 channels
Channel positions : Front: L R
Sampling rate : 48.0 KHz
Compression mode : Lossy
Stream size : 131 MiB (6%)
Language : French
Default : No
Forced : No
Text
ID : 5
Format : VobSub
Codec ID : S_VOBSUB
Codec ID/Info : Picture based subtitle format used on DVDs
Language : Russian
Default : No
Forced : No
Menu
00:00:00.000 : :Chapter 01
00:05:57.960 : :Chapter 02
00:09:22.320 : :Chapter 03
00:15:37.920 : :Chapter 04
00:21:18.680 : :Chapter 05
00:28:56.960 : :Chapter 06
00:36:13.480 : :Chapter 07
00:41:21.920 : :Chapter 08
00:46:13.920 : :Chapter 09
00:52:12.000 : :Chapter 10
01:04:33.120 : :Chapter 11
01:08:18.880 : :Chapter 12
01:13:15.240 : :Chapter 13
01:23:06.600 : :Chapter 14
01:29:25.640 : :Chapter 15
01:32:41.040 : :Chapter 16

Скриншоты

To download the content you need:
1. Download and install torrent client [for Windows] or for mobile system
2. Click on [Download]
Attention.
If the test YOU are NOT a ROBOT - does not work, then You are using an outdated browser.
Install the current browser and click on [Download]
Security: torrent client is allowed by Kaspersky.

[en.asmlocator.ru].t3686.torrent 
Torrent: Registered [ 2015-11-29 19:36 ] · 207F20BD77D58BCF965F2CC90449872BE34663ED

Download .torrent

Download

11 KB

Status: checked
Completed: 1 times
Size: 2.05 GB
terms.php
[Profile] [PM]
Display posts:    
Reply to topic

Current time is: 09-Dec 04:37

All times are UTC ± 0



You cannot post new topics in this forum
You cannot reply to topics in this forum
You cannot edit your posts in this forum
You cannot delete your posts in this forum
You cannot vote in polls in this forum
You cannot attach files in this forum
You can download files in this forum
Верим фактам, а не вранью Путина! Факт, что Правительство ведёт Россию к истреблению.
Так как численность населения падает, даже не смотря на приток эмигрантов!
Русская нация вымирает и вырождается, смешиваясь с эмигрантами!
Факт, что военных и граждан предприятий заставляют голосовать за партию Единая Россия и Путина
ПОД СТРАХОМ УВОЛЬНЕНИЯ!
Нам не нужно Правительство, блокирующее личную жизнь, интернет, нарушающее сохранность данных.
Все эти действия финансируются за счёт народа!