Злоупотребление властью / Abuso di potere (Камилло Баццони / Camillo Bazzoni) [1972, Италия, Франция, Германия (ФРГ), криминал, драма, DVDRip] Sub Rus + Original Ita

Reply to topic
DL-List and Torrent activity
Size:  1.3 GB   |    Registered:  4 years   |    Completed:  0 times

Seeder not seen: Never

 
   
 
 
Author Message

star21 ®

Gender: Female

Longevity: 4 years 1 month

Posts: 551946

Location: Екатеринбург

Post 29-Nov-2015 19:38

[Quote]

Злоупотребление властью / Abuso di potere Страна: Италия, Франция, Германия (ФРГ)
Жанр: криминал, драма
Год выпуска: 1972
Продолжительность: 01:37:30
Перевод: Субтитры Северный
Cубтитры: русские
Оригинальная аудиодорожка: итальянский
Режиссер: Камилло Баццони / Camillo Bazzoni
В ролях: Фредерик Стэффорд, Марилу Толо, Франко Фабрици, Клаудио Гора, Нинетто Даволи, Умберто Орсини, Юди Винтер, Элио Замуто, Гуидо Леонтини, Райнхард Колльдехофф, Коррадо Гайпа
Описание: Расследуя убийство журналиста Энрико Гальярди комиссар полиции Лука Мичели обнаруживает, что оно совершено не случайным грабителем, как это ему пытаются представить, подставляя в качестве подозреваемого бывалого уголовника, а по приказу мафиозного картеля. Потянув за ниточку, комиссар начинает распутывать клубок, ведущий к серьезным людям, контролирующим поставки героина, нелегальную торговлю оружием и драгоценностями и тому подобные незаконные операции. Несмотря на активное противодействие, в том числе и со стороны собственного начальства, комиссар решает идти до конца…
Сэмпл: http://multi-up.com/1072483
Качество видео: DVDRip
Формат видео: AVI
Видео: 704x384 (1.83:1), 25 fps, XviD build 64 ~1 737 Kbps avg, 0.252 bit/pixel
Аудио: 48 kHz, AC3 Dolby Digital, 2/0 (L,R) ch, ~192 kbps
Формат субтитров: softsub (SRT)

MediaInfo

Format : AVI
Format/Info : Audio Video Interleave
File size : 1.30 GiB
Duration : 1h 37mn
Overall bit rate : 1 903 Kbps
Video
ID : 0
Format : MPEG-4 Visual
Format profile : Advanced Simple@L5
Format settings, BVOP : 2
Format settings, QPel : No
Format settings, GMC : No warppoints
Format settings, Matrix : Default (H.263)
Codec ID : XVID
Codec ID/Hint : XviD
Duration : 1h 37mn
Bit rate : 1 700 Kbps
Width : 704 pixels
Height : 384 pixels
Display aspect ratio : 1.85:1
Frame rate : 25.000 fps
Color space : YUV
Chroma subsampling : 4:2:0
Bit depth : 8 bits
Scan type : Progressive
Compression mode : Lossy
Bits/(Pixel*Frame) : 0.252
Stream size : 1.16 GiB (89%)
Writing library : XviD 64
Audio
ID : 1
Format : AC-3
Format/Info : Audio Coding 3
Mode extension : CM (complete main)
Format settings, Endianness : Big
Codec ID : 2000
Duration : 1h 37mn
Source duration : 1h 37mn
Bit rate mode : Constant
Bit rate : 192 Kbps
Channel(s) : 2 channels
Channel positions : Front: L R
Sampling rate : 48.0 KHz
Bit depth : 16 bits
Compression mode : Lossy
Stream size : 134 MiB (10%)
Alignment : Aligned on interleaves
Interleave, duration : 32 ms (0.80 video frame)

Скриншот c названием фильма

Пример субтитров

1
00:00:44,200 --> 00:00:49,200
Злоупотребление властью
2
00:02:55,607 --> 00:02:58,360
Прости, я хочу пить.
3
00:03:04,847 --> 00:03:10,683
- Как обычно, немного льда.
- Привет, Энрико.
- Привет.
4
00:03:10,708 --> 00:03:12,701
Почему бы не пригласить меня на ужин?
5
00:03:12,725 --> 00:03:14,720
Я жду Розенталя, а потом занят.
6
00:03:14,745 --> 00:03:16,933
Но Розенталь сидит на
своём обычном месте.
7
00:03:16,960 --> 00:03:19,557
У тебя никогда нет
на меня времени, да?
8
00:03:19,607 --> 00:03:21,155
Осторожно, этот тип тебя обманет.
9
00:03:21,160 --> 00:03:24,681
Никакого риска, я разберусь
с ним сегодня. Пока.
10
00:03:42,327 --> 00:03:45,399
Присаживайтесь.
11
00:03:45,447 --> 00:03:49,235
Я подсчитал проценты за месяц.
Проверьте деньги.
12
00:03:54,509 --> 00:03:59,237
- Продлевать не будете?
- Нет, я ухожу.
- Куда спешить?
13
00:03:59,287 --> 00:04:03,075
- Вы принесли?
- Да, конечно.
14
00:04:05,727 --> 00:04:08,036
Повторюсь, спешить некуда.
15
00:04:08,087 --> 00:04:10,885
Меня какое-то время не будет,
так что я предпочитаю...
16
00:04:10,927 --> 00:04:13,999
Синьор Гальярди, я одалживаю
деньги только тем, кому доверяю.
17
00:04:14,047 --> 00:04:16,402
А в вас я ничуть не сомневаюсь.
18
00:04:16,447 --> 00:04:20,122
Ну ладно, желаю удачной поездки.
19
00:04:23,527 --> 00:04:26,246
Спасибо, хорошего вечера.
20
00:04:28,407 --> 00:04:30,477
Хорошего вечера.
21
00:04:32,607 --> 00:04:36,077
Обязательно сейчас было встречаться
с этим кровососом?
Огромное спасибо Северному за перевод фильма!

To download the content you need:
1. Download and install torrent client [for Windows] or for mobile system
2. Click on [Download]
Attention.
If the test YOU are NOT a ROBOT - does not work, then You are using an outdated browser.
Install the current browser and click on [Download]
Security: torrent client is allowed by Kaspersky.

[en.asmlocator.ru].t3685.torrent 
Torrent: Registered [ 2015-11-29 19:36 ] · 018D93EC4429C685292E844CE32BA266398762D5

Download .torrent

Download

13 KB

Status: checked
Completed: 0 times
Size: 1.3 GB
terms.php
[Profile] [PM]
Display posts:    
Reply to topic

Current time is: 09-Dec 05:09

All times are UTC ± 0



You cannot post new topics in this forum
You cannot reply to topics in this forum
You cannot edit your posts in this forum
You cannot delete your posts in this forum
You cannot vote in polls in this forum
You cannot attach files in this forum
You can download files in this forum
Верим фактам, а не вранью Путина! Факт, что Правительство ведёт Россию к истреблению.
Так как численность населения падает, даже не смотря на приток эмигрантов!
Русская нация вымирает и вырождается, смешиваясь с эмигрантами!
Факт, что военных и граждан предприятий заставляют голосовать за партию Единая Россия и Путина
ПОД СТРАХОМ УВОЛЬНЕНИЯ!
Нам не нужно Правительство, блокирующее личную жизнь, интернет, нарушающее сохранность данных.
Все эти действия финансируются за счёт народа!