Свадьба / A Wedding (Роберт Олтмен / Robert Altman) [1978, США, трагикомедия, DVDRip] MVO (Первый канал) + Original Eng

Reply to topic
DL-List and Torrent activity
Size:  1.48 GB   |    Registered:  4 years   |    Completed:  0 times

Seeder not seen: Never

 
   
 
 
Author Message

star21 ®

Gender: Female

Longevity: 4 years 1 month

Posts: 551946

Location: Екатеринбург

Post 29-Nov-2015 19:38

[Quote]

Свадьба
A Wedding

Страна: США
Жанр: трагикомедия
Год выпуска: 1978
Продолжительность: 02:04:56-Перевод: Профессиональный (многоголосый закадровый)
Первый канал

Cубтитры: нет
Оригинальная аудиодорожка: английский-Режиссер: Роберт Олтмен / Robert Altman
В ролях: Джеральдин Чаплин, Миа Фэрроу, Лиллиан Гиш, Лоурен Хаттон, Нина Ван Палландт, Кэрол Бёрнетт, Тим Томерсон, Марта Хефлин, Берт Ремсен, Деннис Франц, Джордж Уэндт, Джоан Аллен, Гэри Синиз, Джон Малкович-Описание: На большом семейном празднике собираются представители двух абсолютно разных семейств — обеспеченные итальянцы Корелли и малоимущие ирландцы Бреннеры. Поводом для праздника стала свадьба их детей. В самый разгар торжества случается несчастье — умирает бабушка жениха. Семейный доктор решает до поры до времени скрыть этот факт, чтобы не портить праздник. Но и без этой печальной новости, накал страстей разгорается с нешуточной силой — алкоголь вкупе с национальными особенностями новоиспеченных родственников образуют гремучую смесь, которая неудержимо ведет к эмоциональному взрыву-Доп. информация:
О переводе: Перевод на трекере появляется впервые
Качество: IPTV (Первый канал)
Имеются вставки из двухголосого с DVD:
00:43:05 - 00:43:06 (слово "мужа")
01:10:24 - 01:10:36

Запись и синхронизация:-Сэмпл: минута54сек-Качество видео: DVDRip (спасибо )
Формат видео: AVI
Видео: XVID, 720х304, 2,35:1, 23,976 кадра/сек, 1296 Кбит/сек
Аудио 1: AC-3, 48,0 КГц, 192 Кбит/сек, 2 канала (многоголосый Первый канал)
Аудио 2: AC-3, 48,0 КГц, 192 Кбит/сек, 2 канала (английская оригинальная дорожка)

Сравнение с StudioRAK

6 скринов

MediaInfo

Общее
Полное имя : Свадьба.1978.DVDRip.avi
Формат : AVI
Формат/Информация : Audio Video Interleave
Размер файла : 1,48 Гбайт
Продолжительность : 2 ч. 4 м.
Общий поток : 1694 Кбит/сек
Название фильма : Свадьба / A Wedding / 1978 / DVDRip
Дата записи : 09.10.2015
Программа кодирования : VirtualDubModRus 1.5.10.2 (build 2542/release)
Библиотека кодирования : VirtualDubMod build 2542/release
Авторское право : mister55555
Примечание : для rutracker.org
Видео
Идентификатор : 0
Формат : MPEG-4 Visual
Профиль формата : Advanced Simple@L5
Параметр BVOP формата : 2
Параметр QPel формата : Нет
Параметр GMC формата : Без точки перехода
Параметр матрицы формата : Выборочная
Идентификатор кодека : XVID
Идентификатор кодека/Подсказка : XviD
Продолжительность : 2 ч. 4 м.
Битрейт : 1296 Кбит/сек
Ширина : 720 пикселей
Высота : 304 пикселя
Соотношение сторон : 2,35:1
Частота кадров : 23,976 кадра/сек
Цветовое пространство : YUV
Субдискретизация насыщенности : 4:2:0
Битовая глубина : 8 бит
Тип развёртки : Прогрессивная
Метод сжатия : С потерями
Бит/(Пиксели*Кадры) : 0.247
Размер потока : 1,13 Гбайт (76%)
Библиотека кодирования : XviD 73
Аудио #1
Идентификатор : 1
Формат : AC-3
Формат/Информация : Audio Coding 3
Расширение режима : CM (complete main)
Параметр Endianness формата : Big
Идентификатор кодека : 2000
Продолжительность : 2 ч. 4 м.
Вид битрейта : Постоянный
Битрейт : 192 Кбит/сек
Каналы : 2 канала
Расположение каналов : Front: L R
Частота : 48,0 КГц
Метод сжатия : С потерями
Размер потока : 172 Мбайт (11%)
Выравнивание : Разделение по промежуткам
Продолжительность промежутка : 42 мс. (1,00 видеокадр)
Время предзагрузки промежутка : 500 мс.
Заголовок : многоголосый Первый канал
Аудио #2
Идентификатор : 2
Формат : AC-3
Формат/Информация : Audio Coding 3
Профиль формата : Dolby Digital
Расширение режима : CM (complete main)
Параметр Endianness формата : Big
Идентификатор кодека : 2000
Продолжительность : 2 ч. 4 м.
Вид битрейта : Постоянный
Битрейт : 192 Кбит/сек
Каналы : 2 канала
Расположение каналов : Front: L R
Частота : 48,0 КГц
Метод сжатия : С потерями
Размер потока : 172 Мбайт (11%)
Выравнивание : Разделение по промежуткам
Продолжительность промежутка : 42 мс. (1,00 видеокадр)
Время предзагрузки промежутка : 500 мс.
Заголовок : оригинал

Скриншоты

To download the content you need:
1. Download and install torrent client [for Windows] or for mobile system
2. Click on [Download]
Attention.
If the test YOU are NOT a ROBOT - does not work, then You are using an outdated browser.
Install the current browser and click on [Download]
Security: torrent client is allowed by Kaspersky.

[en.asmlocator.ru].t3682.torrent 
Torrent: Registered [ 2015-11-29 19:36 ] · 0020E01CFD20420BF8A1EF962E43FE33948BC3B9

Download .torrent

Download

15 KB

Status: checked
Completed: 0 times
Size: 1.48 GB
terms.php
[Profile] [PM]
Display posts:    
Reply to topic

Current time is: 14-Dec 23:21

All times are UTC ± 0



You cannot post new topics in this forum
You cannot reply to topics in this forum
You cannot edit your posts in this forum
You cannot delete your posts in this forum
You cannot vote in polls in this forum
You cannot attach files in this forum
You can download files in this forum
Верим фактам, а не вранью Путина! Факт, что Правительство ведёт Россию к истреблению.
Так как численность населения падает, даже не смотря на приток эмигрантов!
Русская нация вымирает и вырождается, смешиваясь с эмигрантами!
Факт, что военных и граждан предприятий заставляют голосовать за партию Единая Россия и Путина
ПОД СТРАХОМ УВОЛЬНЕНИЯ!
Нам не нужно Правительство, блокирующее личную жизнь, интернет, нарушающее сохранность данных.
Все эти действия финансируются за счёт народа!