Моя любимая блондинка / My Favorite Blonde (Сидней Лэнфилд / Sidney Lanfield) [1942, США, комедия, DVDRip] VO (Владимир Воронцов (-Доцент-)) + Original Eng

Reply to topic
DL-List and Torrent activity
Size:  769 MB   |    Registered:  4 years 7 months   |    Completed:  0 times

Seeder not seen: Never

 
   
 
 
Author Message

star21 ®

Gender: Female

Longevity: 4 years 8 months

Posts: 551945

Location: Екатеринбург

Post 29-Nov-2015 19:38

[Quote]

Моя любимая блондинка / My Favorite Blonde
Страна: США
Жанр: комедия
Год выпуска: 1942
Продолжительность: 01:18:10
Перевод: Одноголосый закадровый -
Cубтитры: русские (на музыкальный номер)
Оригинальная аудиодорожка: английский
Режиссер: Сидней Лэнфилд / Sidney Lanfield
Композитор: Дэвид Баттолф / David Buttolph
В ролях: Боб Хоуп / Bob Hope ... Larry Haines
Мэдлен Кэррол / Madeleine Carroll ... Karen Bentley
Гэйл Сондергаард / Gale Sondergaard ... Madame Stephanie Runick
Джордж Зукко / George Zucco ... Dr. Hugo Streger
Лайонел Ройс / Lionel Royce ... Karl
Уолтер Кингсфорд / Walter Kingsford ... Dr. Wallace Faber
Виктор Варкони / Victor Varconi ... Miller
Отто Рейчоу / Otto Reichow ... Lanz
Эстер Ховард / Esther Howard ... Mrs. Topley
Эдвард Гарган / Edward Gargan ... Mulrooney
Джеймс Бёрк / James Burke ... Union Secretary
Чарльз Кейн / Charles Cane ... Turk O'Flaherty
Крэйн Уитли / Crane Whitley ... Ulrich - Henchman
Дули Уилсон / Dooley Wilson ... Porter
Милтон Парсонс / Milton Parsons ... Mortician

Бинг Кросби / Bing Crosby ... Man Outside Union Hall, в титрах не указан
Описание: Ларри Хейнс - посредственный артист водевилей - садится в поезд, направляющийся в Лос-Анджелес. Голливуд ждёт его с распростертыми объятиями? Не совсем. Контракт подписан с партнёром Ларри, катающимся на роликовых коньках пингвином Перси! Но, как говорит пословица: “ Тень славы лучше, чем отсутствие славы вообще!“ И вот в поезде Ларри встречает женщину. И к тому же блондинку. И британского агента в придачу! И даже умудряется помочь ей перехитрить немецких шпионов и выполнить важное секретное задание...--БОЛЬШОЕ СПАСИБО:
Перевод и озвучивание фильма -
Работа со звуком и реавторинг DVD -
Также Большое Спасибо всем, кто принял участие в появлении озвучки к этому фильму:
Магда, Lafajet, jasenka, елена 22, yanaelisa, HippopotamusIV, surzhoks, leoder, борюська, duum100, voostorg, Simpun, mangust1, mumzik69
--Сэмпл: http://multi-up.com/1072649
Качество видео: DVDRip
Формат видео: AVI
Видео: XviD, 528x400 (4:3), 23.976 fps, 1110 Kbps
Аудио 1: MP3, 48.0 KHz, 2 ch., 128 Kbps (русский одноголосый закадровый перевод) - Владимир Воронцов (-Доцент-)
Аудио 2: MP3, 48.0 KHz, 2 ch., 128 Kbps (оригинальная английская звуковая дорожка, лежит отдельно)
(см. "Программы для работы с контейнерами" - > "VirtualDub" или "AVI-Mux")

MediaInfo

AVI-файл:
Общее
Полное имя : F:\раздачи\My Favorite Blonde 1942 700MB\My Favorite Blonde.avi
Формат : AVI
Формат/Информация : Audio Video Interleave
Размер файла : 697 Мбайт
Продолжительность : 1 ч. 18 м.
Общий поток : 1247 Кбит/сек
Программа кодирования : VirtualDubMod 1.5.10.3 | www.virtualdub-fr.org || (build 2550/release)
Библиотека кодирования : VirtualDubMod build 2550/release
Видео
Идентификатор : 0
Формат : MPEG-4 Visual
Профиль формата : Advanced Simple@L5
Параметр BVOP формата : 2
Параметр QPel формата : Нет
Параметр GMC формата : Без точки перехода
Параметр матрицы формата : Default (H.263)
Идентификатор кодека : DX50
Идентификатор кодека/Подсказка : DivX 5
Продолжительность : 1 ч. 18 м.
Битрейт : 1110 Кбит/сек
Ширина : 528 пикселей
Высота : 400 пикселей
Соотношение сторон : 4:3
Частота кадров : 23,976 кадра/сек
Цветовое пространство : YUV
Субдискретизация насыщенности : 4:2:0
Битовая глубина : 8 бит
Тип развёртки : Прогрессивная
Метод сжатия : С потерями
Бит/(Пиксели*Кадры) : 0.219
Размер потока : 621 Мбайт (89%)
Библиотека кодирования : XviD 73
Аудио
Идентификатор : 1
Формат : MPEG Audio
Версия формата : Version 1
Профиль формата : Layer 3
Идентификатор кодека : 55
Идентификатор кодека/Подсказка : MP3
Продолжительность : 1 ч. 18 м.
Вид битрейта : Постоянный
Битрейт : 128 Кбит/сек
Каналы : 2 канала
Частота : 48,0 КГц
Метод сжатия : С потерями
Размер потока : 71,6 Мбайт (10%)
Выравнивание : Соединение по промежуткам
Продолжительность промежутка : 42 мс. (1,00 видеокадр)
Время предзагрузки промежутка : 504 мс.
Библиотека кодирования : LAME3.99r
Настройки программы : -m s -V 4 -q 0 -lowpass 17 -b 128
английская оригинальная звуковая дорожка, лежит отдельно:
Общее
Полное имя : F:\раздачи\My Favorite Blonde 1942 700MB\My Favorite Blonde.ENG.mp3
Формат : MPEG Audio
Размер файла : 71,6 Мбайт
Продолжительность : 1 ч. 18 м.
Режим общего битрейта : Постоянный
Общий поток : 128 Кбит/сек
Библиотека кодирования : LAME3.99r
Аудио
Формат : MPEG Audio
Версия формата : Version 1
Профиль формата : Layer 3
Продолжительность : 1 ч. 18 м.
Вид битрейта : Постоянный
Битрейт : 128 Кбит/сек
Каналы : 2 канала
Частота : 48,0 КГц
Метод сжатия : С потерями
Размер потока : 71,6 Мбайт (100%)
Библиотека кодирования : LAME3.99r
Настройки программы : -m s -V 4 -q 0 -lowpass 17 -b 128

Исходник

To download the content you need:
1. Download and install torrent client [for Windows] or for mobile system
2. Click on [Download]
Attention.
If the test YOU are NOT a ROBOT - does not work, then You are using an outdated browser.
Install the current browser and click on [Download]

Do not work with Yandex browser. Uploading files to them is erroneous.
Security: torrent client is allowed by Kaspersky.

[en.asmlocator.ru].t3680.torrent 
Torrent: Registered [ 2015-11-29 19:36 ] · 9EE494BB1875F2B89189837FD81D8841D40374B9

Download .torrent

Download

16 KB

Status: checked
Completed: 0 times
Size: 769 MB
terms.php
[Profile] [PM]
Display posts:    
Reply to topic

Current time is: 13-Jul 02:20

All times are UTC ± 0



You cannot post new topics in this forum
You cannot reply to topics in this forum
You cannot edit your posts in this forum
You cannot delete your posts in this forum
You cannot vote in polls in this forum
You cannot attach files in this forum
You can download files in this forum
Верим фактам, а не вранью Путина! Факт, что Правительство ведёт Россию к истреблению.
Так как численность населения падает, даже не смотря на приток эмигрантов!
Русская нация вымирает и вырождается, смешиваясь с эмигрантами!
Факт, что военных и граждан предприятий заставляют голосовать за партию Единая Россия и Путина
ПОД СТРАХОМ УВОЛЬНЕНИЯ!
Нам не нужно Правительство, блокирующее личную жизнь, интернет, нарушающее сохранность данных.
Все эти действия финансируются за счёт народа!