Под знаком скорпиона / Sotto il segno dello scorpione (Паоло и Витторио Тавиани / Paolo Taviani, Vittorio Taviani) [1969, Италия, Притча, DVDRip-AVC] 2x MVO (НТВ, Петербург 5й канал) + Original Ita

Reply to topic
DL-List and Torrent activity
Size:  2.1 GB   |    Registered:  4 years   |    Completed:  0 times

Seeder not seen: Never

 
   
 
 
Author Message

star21 ®

Gender: Female

Longevity: 4 years 1 month

Posts: 551946

Location: Екатеринбург

Post 29-Nov-2015 19:38

[Quote]

Под знаком скорпиона / Sotto il segno dello scorpione
«Видно, в понедельник их мама родила»
Страна: Италия
Жанр: Притча
Год выпуска: 1969
Продолжительность: 01:26:52
Перевод: Профессиональный (многоголосый закадровый) - НТВ
Перевод 2: Профессиональный (многоголосый закадровый) - "Петербург, 5й канал"
Cубтитры: нет
Оригинальная аудиодорожка: итальянский
Режиссеры: Паоло и Витторио Тавиани / Paolo Taviani, Vittorio Taviani
В ролях: Джан Мария Волонте / Gian Maria Volontè, Лючия Бозе / Lucia Bosé, Джулио Броджи / Giulio Brogi, Антонио Пьованелли / Antonio Piovanelli, Стеффен Захариас / Steffen Zacharias
Описание: Землетрясение разрушило вулканический остров. Некоторые из его обитателей спаслись и доплыли до другого такого же острова. Теперь они должны убедить местных аборигенов покинуть ненадежную родину и вместе с ними отправиться на утлых суденышках на поиски более надежной суши...
Доп. информация: Рип с DVD из раздачи - спасибо TDiTP_
Сэмпл: http://multi-up.com/1072753
Качество видео: DVDRip-AVC
Формат видео: MKV
Видео: V_MPEG4/ISO/AVC, 720@1024x544, 1.882, 25 fps, 2 848 Kbps
Аудио: AC-3, 48.0 KHz, 2 channels, 192 Kbps
Аудио 2: AC-3, 48.0 KHz, 1 channel, 128 Kbps
Аудио 3: AC-3, 48.0 KHz, 2 channels, 224 Kbps

MediaInfo

General
Unique ID : 247136086458561669485316785484517528292 (0xB9ECADCE060F0CB78A55F7518C3ED2E4)
Complete name : D:\temp\SottoIlSegnoDelloScorpione.1969.2Rus.It.DVDRipAVC.mkv
Format : Matroska
Format version : Version 4 / Version 2
File size : 2.10 GiB
Duration : 1h 26mn
Overall bit rate : 3 461 Kbps
Encoded date : UTC 2015-10-25 10:52:19
Writing application : mkvmerge v7.9.0 ('Birds') 32bit
Writing library : libebml v1.3.1 + libmatroska v1.4.2
_STATISTICS_WRITING_APP : mkvmerge v7.9.0 ('Birds') 32bit
_STATISTICS_WRITING_DATE_UTC : 2015-10-25 10:52:19
_STATISTICS_TAGS : BPS DURATION NUMBER_OF_FRAMES NUMBER_OF_BYTES
DURATION : 01:26:52.192000000
NUMBER_OF_FRAMES : 162881
NUMBER_OF_BYTES : 145941376
Video
ID : 1
Format : AVC
Format/Info : Advanced Video Codec
Format profile : High@L4.1
Format settings, CABAC : Yes
Format settings, ReFrames : 16 frames
Codec ID : V_MPEG4/ISO/AVC
Bit rate : 2 848 Kbps
Width : 720 pixels
Height : 544 pixels
Display aspect ratio : 1.882
Frame rate mode : Variable
Original frame rate : 25.000 fps
Color space : YUV
Chroma subsampling : 4:2:0
Bit depth : 8 bits
Scan type : Progressive
Writing library : x264 core 146 r2538 121396c
Encoding settings : cabac=1 / ref=16 / deblock=1:-1:-1 / analyse=0x3:0x133 / me=umh / subme=10 / psy=1 / psy_rd=1.00:0.15 / mixed_ref=1 / me_range=28 / chroma_me=1 / trellis=2 / 8x8dct=1 / cqm=0 / deadzone=21,11 / fast_pskip=1 / chroma_qp_offset=-3 / threads=6 / lookahead_threads=1 / sliced_threads=0 / nr=0 / decimate=1 / interlaced=0 / bluray_compat=0 / constrained_intra=0 / bframes=8 / b_pyramid=2 / b_adapt=2 / b_bias=0 / direct=3 / weightb=1 / open_gop=0 / weightp=2 / keyint=250 / keyint_min=25 / scenecut=40 / intra_refresh=0 / rc_lookahead=60 / rc=crf / mbtree=1 / crf=19.5 / qcomp=0.60 / qpmin=0 / qpmax=69 / qpstep=4 / vbv_maxrate=62500 / vbv_bufsize=78125 / crf_max=0.0 / nal_hrd=none / filler=0 / ip_ratio=1.40 / aq=1:1.00
Default : Yes
Forced : No
Audio #1
ID : 2
Format : AC-3
Format/Info : Audio Coding 3
Mode extension : CM (complete main)
Format settings, Endianness : Big
Codec ID : A_AC3
Duration : 1h 26mn
Bit rate mode : Constant
Bit rate : 192 Kbps
Channel(s) : 2 channels
Channel positions : Front: L R
Sampling rate : 48.0 KHz
Bit depth : 16 bits
Compression mode : Lossy
Stream size : 119 MiB (6%)
Title : Rus-1
Language : Russian
Default : Yes
Forced : No
Audio #2
ID : 3
Format : AC-3
Format/Info : Audio Coding 3
Mode extension : CM (complete main)
Format settings, Endianness : Big
Codec ID : A_AC3
Duration : 1h 26mn
Bit rate mode : Constant
Bit rate : 128 Kbps
Channel(s) : 1 channel
Channel positions : Front: C
Sampling rate : 48.0 KHz
Bit depth : 16 bits
Compression mode : Lossy
Stream size : 79.5 MiB (4%)
Title : Rus-2
Language : Russian
Default : No
Forced : No
Audio #3
ID : 4
Format : AC-3
Format/Info : Audio Coding 3
Mode extension : CM (complete main)
Format settings, Endianness : Big
Codec ID : A_AC3
Duration : 1h 26mn
Bit rate mode : Constant
Bit rate : 224 Kbps
Channel(s) : 2 channels
Channel positions : Front: L R
Sampling rate : 48.0 KHz
Bit depth : 16 bits
Compression mode : Lossy
Stream size : 139 MiB (6%)
Title : It-org
Language : Italian
Default : No
Forced : No

Скриншот c названием фильма

To download the content you need:
1. Download and install torrent client [for Windows] or for mobile system
2. Click on [Download]
Attention.
If the test YOU are NOT a ROBOT - does not work, then You are using an outdated browser.
Install the current browser and click on [Download]
Security: torrent client is allowed by Kaspersky.

[en.asmlocator.ru].t3679.torrent 
Torrent: Registered [ 2015-11-29 19:36 ] · C7691F29E9E0DC01CC759DB137B889A433D0B892

Download .torrent

Download

11 KB

Status: checked
Completed: 0 times
Size: 2.1 GB
terms.php
[Profile] [PM]
Display posts:    
Reply to topic

Current time is: 05-Dec 15:16

All times are UTC ± 0



You cannot post new topics in this forum
You cannot reply to topics in this forum
You cannot edit your posts in this forum
You cannot delete your posts in this forum
You cannot vote in polls in this forum
You cannot attach files in this forum
You can download files in this forum
Верим фактам, а не вранью Путина! Факт, что Правительство ведёт Россию к истреблению.
Так как численность населения падает, даже не смотря на приток эмигрантов!
Русская нация вымирает и вырождается, смешиваясь с эмигрантами!
Факт, что военных и граждан предприятий заставляют голосовать за партию Единая Россия и Путина
ПОД СТРАХОМ УВОЛЬНЕНИЯ!
Нам не нужно Правительство, блокирующее личную жизнь, интернет, нарушающее сохранность данных.
Все эти действия финансируются за счёт народа!